  0
SECTION
  2
HEADER
  9
$ACADVER
  1
AC1012
  9
$DWGCODEPAGE
  3
ansi_1252
  9
$INSBASE
 10
0.0
 20
0.0
 30
0.0
  9
$EXTMIN
 10
0.0
 20
0.0
 30
0.0
  9
$EXTMAX
 10
42.0
 20
26.0
 30
0.0
  9
$LIMMIN
 10
0.0
 20
0.0
  9
$LIMMAX
 10
42.0
 20
26.0
  9
$ORTHOMODE
 70
     0
  9
$REGENMODE
 70
     1
  9
$FILLMODE
 70
     1
  9
$QTEXTMODE
 70
     0
  9
$MIRRTEXT
 70
     1
  9
$DRAGMODE
 70
     2
  9
$LTSCALE
 40
1.0
  9
$OSMODE
 70
    37
  9
$ATTMODE
 70
     1
  9
$TEXTSIZE
 40
0.2777777778
  9
$TRACEWID
 40
0.05
  9
$TEXTSTYLE
  7
STANDARD
  9
$CLAYER
  8
0
  9
$CELTYPE
  6
BYLAYER
  9
$CECOLOR
 62
   256
  9
$CELTSCALE
 40
1.0
  9
$DELOBJ
 70
     1
  9
$DISPSILH
 70
     0
  9
$DIMSCALE
 40
1.0
  9
$DIMASZ
 40
0.262898763
  9
$DIMEXO
 40
0.05
  9
$DIMDLI
 40
0.38
  9
$DIMRND
 40
0.0
  9
$DIMDLE
 40
0.0
  9
$DIMEXE
 40
0.125
  9
$DIMTP
 40
0.0
  9
$DIMTM
 40
0.0
  9
$DIMTXT
 40
0.3611111111
  9
$DIMCEN
 40
0.09
  9
$DIMTSZ
 40
0.0
  9
$DIMTOL
 70
     0
  9
$DIMLIM
 70
     0
  9
$DIMTIH
 70
     1
  9
$DIMTOH
 70
     1
  9
$DIMSE1
 70
     0
  9
$DIMSE2
 70
     0
  9
$DIMTAD
 70
     0
  9
$DIMZIN
 70
     0
  9
$DIMBLK
  1

  9
$DIMASO
 70
     1
  9
$DIMSHO
 70
     1
  9
$DIMPOST
  1

  9
$DIMAPOST
  1

  9
$DIMALT
 70
     0
  9
$DIMALTD
 70
     2
  9
$DIMALTF
 40
25.4
  9
$DIMLFAC
 40
1.0
  9
$DIMTOFL
 70
     0
  9
$DIMTVP
 40
0.0
  9
$DIMTIX
 70
     0
  9
$DIMSOXD
 70
     0
  9
$DIMSAH
 70
     0
  9
$DIMBLK1
  1

  9
$DIMBLK2
  1

  9
$DIMSTYLE
  2
STANDARD
  9
$DIMCLRD
 70
     0
  9
$DIMCLRE
 70
     0
  9
$DIMCLRT
 70
     0
  9
$DIMTFAC
 40
1.0
  9
$DIMGAP
 40
0.06
  9
$DIMJUST
 70
     0
  9
$DIMSD1
 70
     0
  9
$DIMSD2
 70
     0
  9
$DIMTOLJ
 70
     1
  9
$DIMTZIN
 70
     0
  9
$DIMALTZ
 70
     0
  9
$DIMALTTZ
 70
     0
  9
$DIMFIT
 70
     3
  9
$DIMUPT
 70
     0
  9
$DIMUNIT
 70
     2
  9
$DIMDEC
 70
     3
  9
$DIMTDEC
 70
     3
  9
$DIMALTU
 70
     2
  9
$DIMALTTD
 70
     2
  9
$DIMTXSTY
  7
STANDARD
  9
$DIMAUNIT
 70
     0
  9
$LUNITS
 70
     2
  9
$LUPREC
 70
     3
  9
$SKETCHINC
 40
0.1
  9
$FILLETRAD
 40
0.5
  9
$AUNITS
 70
     0
  9
$AUPREC
 70
     1
  9
$MENU
  1
.
  9
$ELEVATION
 40
0.0
  9
$PELEVATION
 40
0.0
  9
$THICKNESS
 40
0.0
  9
$LIMCHECK
 70
     0
  9
$CHAMFERA
 40
0.5
  9
$CHAMFERB
 40
0.5
  9
$CHAMFERC
 40
1.0
  9
$CHAMFERD
 40
0.0
  9
$SKPOLY
 70
     0
  9
$TDCREATE
 40
2457231.37238103
  9
$TDUPDATE
 40
2457231.37238184
  9
$TDINDWG
 40
0.0000000116
  9
$TDUSRTIMER
 40
0.0000000116
  9
$USRTIMER
 70
     1
  9
$ANGBASE
 50
0.0
  9
$ANGDIR
 70
     0
  9
$PDMODE
 70
     0
  9
$PDSIZE
 40
-1.0
  9
$PLINEWID
 40
0.0
  9
$COORDS
 70
     1
  9
$SPLFRAME
 70
     0
  9
$SPLINETYPE
 70
     6
  9
$SPLINESEGS
 70
     8
  9
$ATTDIA
 70
     0
  9
$ATTREQ
 70
     1
  9
$HANDLING
 70
     1
  9
$HANDSEED
  5
352
  9
$SURFTAB1
 70
     6
  9
$SURFTAB2
 70
     6
  9
$SURFTYPE
 70
     6
  9
$SURFU
 70
     6
  9
$SURFV
 70
     6
  9
$UCSNAME
  2

  9
$UCSORG
 10
0.0
 20
0.0
 30
0.0
  9
$UCSXDIR
 10
1.0
 20
0.0
 30
0.0
  9
$UCSYDIR
 10
0.0
 20
1.0
 30
0.0
  9
$PUCSNAME
  2

  9
$PUCSORG
 10
0.0
 20
0.0
 30
0.0
  9
$PUCSXDIR
 10
1.0
 20
0.0
 30
0.0
  9
$PUCSYDIR
 10
0.0
 20
1.0
 30
0.0
  9
$USERI1
 70
     0
  9
$USERI2
 70
     0
  9
$USERI3
 70
     0
  9
$USERI4
 70
     0
  9
$USERI5
 70
     0
  9
$USERR1
 40
0.0
  9
$USERR2
 40
0.0
  9
$USERR3
 40
0.0
  9
$USERR4
 40
0.0
  9
$USERR5
 40
0.0
  9
$WORLDVIEW
 70
     1
  9
$SHADEDGE
 70
     3
  9
$SHADEDIF
 70
    70
  9
$TILEMODE
 70
     1
  9
$MAXACTVP
 70
    64
  9
$PINSBASE
 10
0.0
 20
0.0
 30
0.0
  9
$PLIMCHECK
 70
     0
  9
$PEXTMIN
 10
1.0000000000E+20
 20
1.0000000000E+20
 30
1.0000000000E+20
  9
$PEXTMAX
 10
-1.0000000000E+20
 20
-1.0000000000E+20
 30
-1.0000000000E+20
  9
$PLIMMIN
 10
0.0
 20
0.0
  9
$PLIMMAX
 10
12.0
 20
9.0
  9
$UNITMODE
 70
     0
  9
$VISRETAIN
 70
     1
  9
$PLINEGEN
 70
     0
  9
$PSLTSCALE
 70
     1
  9
$TREEDEPTH
 70
  3020
  9
$PICKSTYLE
 70
     1
  9
$CMLSTYLE
  2
STANDARD
  9
$CMLJUST
 70
     0
  9
$CMLSCALE
 40
1.0
  9
$SAVEIMAGES
 70
     1
  0
ENDSEC
  0
SECTION
  2
CLASSES
  0
CLASS
  1
ACDBDICTIONARYWDFLT
  2
AcDbDictionaryWithDefault
  3
ObjectDBX Classes
 90
    32768
280
     0
281
     0
  0
CLASS
  1
VISUALSTYLE
  2
AcDbVisualStyle
  3
ObjectDBX Classes
 90
     4095
280
     0
281
     0
  0
CLASS
  1
MATERIAL
  2
AcDbMaterial
  3
ObjectDBX Classes
 90
     1153
280
     0
281
     0
  0
CLASS
  1
XRECORD
  2
AcDbXrecord
  3
AutoCAD 2000
 90
    32768
280
     0
281
     0
  0
ENDSEC
  0
SECTION
  2
TABLES
  0
TABLE
  2
VPORT
  5
8
330
0
100
AcDbSymbolTable
 70
     1
  0
VPORT
  5
29
330
8
100
AcDbSymbolTableRecord
100
AcDbViewportTableRecord
  2
*ACTIVE
 70
     0
 10
0.0
 20
0.0
 11
1.0
 21
1.0
 12
21.0
 22
13.0
 13
0.0
 23
0.0
 14
0.5
 24
0.5
 15
0.5
 25
0.5
 16
0.0
 26
0.0
 36
1.0
 17
0.0
 27
0.0
 37
0.0
 40
26.0
 41
1.6153846154
 42
50.0
 43
0.0
 44
0.0
 50
0.0
 51
0.0
 71
     0
 72
  2000
 73
     1
 74
     3
 75
     0
 76
     0
 77
     0
 78
     0
  0
ENDTAB
  0
TABLE
  2
LTYPE
  5
5
330
0
100
AcDbSymbolTable
 70
     6
  0
LTYPE
  5
14
330
5
100
AcDbSymbolTableRecord
100
AcDbLinetypeTableRecord
  2
BYBLOCK
 70
     0
  3

 72
    65
 73
     0
 40
0.0
  0
LTYPE
  5
15
330
5
100
AcDbSymbolTableRecord
100
AcDbLinetypeTableRecord
  2
BYLAYER
 70
     0
  3

 72
    65
 73
     0
 40
0.0
  0
LTYPE
  5
16
330
5
100
AcDbSymbolTableRecord
100
AcDbLinetypeTableRecord
  2
CONTINUOUS
 70
     0
  3
Solid line
 72
    65
 73
     0
 40
0.0
  0
LTYPE
  5
3F
330
5
100
AcDbSymbolTableRecord
100
AcDbLinetypeTableRecord
  2
HIDDEN
 70
     0
  3
Hidden __ __ __ __ __ __ __ __ __ __ __ __ __ __
 72
    65
 73
     2
 40
0.075
 49
0.05
 74
     0
 49
-0.025
 74
     0
  0
LTYPE
  5
40
330
5
100
AcDbSymbolTableRecord
100
AcDbLinetypeTableRecord
  2
PHANTOM
 70
     0
  3
Phantom ______  __  __  ______  __  __  ______
 72
    65
 73
     6
 40
0.5
 49
0.25
 74
     0
 49
-0.05
 74
     0
 49
0.05
 74
     0
 49
-0.05
 74
     0
 49
0.05
 74
     0
 49
-0.05
 74
     0
  0
LTYPE
  5
41
330
5
100
AcDbSymbolTableRecord
100
AcDbLinetypeTableRecord
  2
CENTER
 70
     0
  3
Center ____ _ ____ _ ____ _ ____ _ ____ _ ____
 72
    65
 73
     4
 40
0.4
 49
0.25
 74
     0
 49
-0.05
 74
     0
 49
0.05
 74
     0
 49
-0.05
 74
     0
  0
LTYPE
  5
42
330
5
100
AcDbSymbolTableRecord
100
AcDbLinetypeTableRecord
  2
CENTERX2
 70
     0
  3
Center (2x) ________  __  ________  __  _____
 72
    65
 73
     4
 40
0.8
 49
0.5
 74
     0
 49
-0.1
 74
     0
 49
0.1
 74
     0
 49
-0.1
 74
     0
  0
LTYPE
  5
43
330
5
100
AcDbSymbolTableRecord
100
AcDbLinetypeTableRecord
  2
DOT2
 70
     0
  3
Dot (.5x) ........................................
 72
    65
 73
     2
 40
0.025
 49
0.0
 74
     0
 49
-0.025
 74
     0
  0
ENDTAB
  0
TABLE
  2
LAYER
  5
2
330
0
100
AcDbSymbolTable
 70
     8
  0
LAYER
  5
10
330
2
100
AcDbSymbolTableRecord
100
AcDbLayerTableRecord
  2
0
 70
     0
 62
     7
  6
CONTINUOUS
  0
LAYER
  5
44
330
2
100
AcDbSymbolTableRecord
100
AcDbLayerTableRecord
  2
SLD-0
 70
     0
 62
   179
  6
CONTINUOUS
  0
LAYER
  5
45
330
2
100
AcDbSymbolTableRecord
100
AcDbLayerTableRecord
  2
OBJECTS
 70
     0
 62
     5
  6
CONTINUOUS
  0
LAYER
  5
46
330
2
100
AcDbSymbolTableRecord
100
AcDbLayerTableRecord
  2
DIMS
 70
     0
 62
     1
  6
CONTINUOUS
  0
LAYER
  5
47
330
2
100
AcDbSymbolTableRecord
100
AcDbLayerTableRecord
  2
NOTES
 70
     0
 62
     7
  6
CONTINUOUS
  0
LAYER
  5
48
330
2
100
AcDbSymbolTableRecord
100
AcDbLayerTableRecord
  2
IMAGES
 70
     0
 62
     7
  6
CONTINUOUS
  0
LAYER
  5
49
330
2
100
AcDbSymbolTableRecord
100
AcDbLayerTableRecord
  2
CENTERLINES
 70
     0
 62
     7
  6
HIDDEN
  0
LAYER
  5
4A
330
2
100
AcDbSymbolTableRecord
100
AcDbLayerTableRecord
  2
BLOCKS
 70
     0
 62
    17
  6
CONTINUOUS
  0
ENDTAB
  0
TABLE
  2
STYLE
  5
3
330
0
100
AcDbSymbolTable
 70
     3
  0
STYLE
  5
11
330
3
100
AcDbSymbolTableRecord
100
AcDbTextStyleTableRecord
  2
STANDARD
 70
     0
 40
0.0
 41
1.0
 50
0.0
 71
     0
 42
0.2777777778
  3
ARIAL.TTF
  4

1001
ACAD
1000
ARIAL
1071
       34
  0
STYLE
  5
DD
330
3
100
AcDbSymbolTableRecord
100
AcDbTextStyleTableRecord
  2
SLDTEXTSTYLE0
 70
     0
 40
0.0
 41
0.948
 50
0.0
 71
     0
 42
0.2
  3
ARIAL.TTF
  4

1001
ACAD
1000
Arial
1071
      290
  0
STYLE
  5
340
330
3
100
AcDbSymbolTableRecord
100
AcDbTextStyleTableRecord
  2
SLDTEXTSTYLE1
 70
     0
 40
0.0
 41
0.948
 50
0.0
 71
     0
 42
0.2
  3
ARIALBD.TTF
  4

1001
ACAD
1000
Arial
1071
 33554722
  0
ENDTAB
  0
TABLE
  2
VIEW
  5
6
330
0
100
AcDbSymbolTable
 70
     0
  0
ENDTAB
  0
TABLE
  2
UCS
  5
7
330
0
100
AcDbSymbolTable
 70
     0
  0
ENDTAB
  0
TABLE
  2
APPID
  5
9
330
0
100
AcDbSymbolTable
 70
     1
  0
APPID
  5
12
330
9
100
AcDbSymbolTableRecord
100
AcDbRegAppTableRecord
  2
ACAD
 70
     0
  0
ENDTAB
  0
TABLE
  2
DIMSTYLE
  5
A
330
0
100
AcDbSymbolTable
 70
     8
  0
DIMSTYLE
105
27
330
A
100
AcDbSymbolTableRecord
100
AcDbDimStyleTableRecord
  2
STANDARD
 70
     0
  3

  4

  5

  6

  7

 40
1.0
 41
0.18
 42
0.0625
 43
0.38
 44
0.18
 45
0.0
 46
0.0
 47
0.0
 48
0.0
140
0.18
141
0.09
142
0.0
143
25.4
144
1.0
145
0.0
146
1.0
147
0.09
 71
     0
 72
     0
 73
     1
 74
     1
 75
     0
 76
     0
 77
     0
 78
     0
170
     0
171
     2
172
     0
173
     0
174
     0
175
     0
176
     0
177
     0
178
     0
270
     2
271
     4
272
     4
273
     2
274
     2
340
11
275
     0
280
     0
281
     0
282
     0
283
     1
284
     0
285
     0
286
     0
287
     3
288
     0
  0
DIMSTYLE
105
1CF
102
{ACAD_REACTORS
330
1CE
330
1E2
330
1F6
330
209
102
}
330
A
100
AcDbSymbolTableRecord
100
AcDbDimStyleTableRecord
  2
SLDDIMSTYLE0
 70
     0
  3

  4

  5

  6

  7

 40
1.0
 41
0.262898763
 42
0.0625
 43
0.38
 44
0.0
 45
0.000000001
 46
0.0
 47
0.0
 48
0.0
140
0.262898763
141
0.0
142
0.0
143
25.4
144
1.0
145
0.0
146
1.0
147
0.0657246908
 71
     0
 72
     0
 73
     1
 74
     1
 75
     0
 76
     0
 77
     0
 78
    12
170
     1
171
     2
172
     0
173
     1
174
     0
175
     0
176
     0
177
     0
178
     0
270
     5
271
     3
272
     3
273
     2
274
     2
340
DD
275
     0
280
     0
281
     0
282
     0
283
     1
284
    12
285
     0
286
     0
287
     3
288
     0
  0
DIMSTYLE
105
21D
102
{ACAD_REACTORS
330
21C
330
252
330
267
330
2CC
102
}
330
A
100
AcDbSymbolTableRecord
100
AcDbDimStyleTableRecord
  2
SLDDIMSTYLE1
 70
     0
  3

  4

  5

  6

  7

 40
1.0
 41
0.262898763
 42
0.0625
 43
0.38
 44
0.0
 45
0.000000001
 46
0.0
 47
0.0
 48
0.0
140
0.262898763
141
0.09
142
0.0
143
25.4
144
1.0
145
0.0
146
1.0
147
0.0657246908
 71
     0
 72
     0
 73
     1
 74
     1
 75
     0
 76
     0
 77
     0
 78
    12
170
     1
171
     2
172
     0
173
     1
174
     0
175
     0
176
     0
177
     0
178
     0
270
     5
271
     6
272
     3
273
     2
274
     2
340
DD
275
     0
280
     0
281
     0
282
     0
283
     1
284
    12
285
     0
286
     0
287
     3
288
     0
  0
DIMSTYLE
105
232
102
{ACAD_REACTORS
330
231
330
242
330
27D
330
28F
102
}
330
A
100
AcDbSymbolTableRecord
100
AcDbDimStyleTableRecord
  2
SLDDIMSTYLE2
 70
     0
  3

  4

  5

  6

  7

 40
1.0
 41
0.262898763
 42
0.0625
 43
0.38
 44
0.0
 45
0.000000001
 46
0.0
 47
0.0
 48
0.0
140
0.262898763
141
0.09
142
0.0
143
25.4
144
1.0
145
0.0
146
1.0
147
0.0657246908
 71
     0
 72
     0
 73
     1
 74
     1
 75
     0
 76
     0
 77
     0
 78
    12
170
     1
171
     2
172
     0
173
     1
174
     0
175
     0
176
     0
177
     0
178
     0
270
     5
271
     3
272
     3
273
     2
274
     2
340
DD
275
     0
280
     0
281
     0
282
     0
283
     1
284
    12
285
     0
286
     0
287
     3
288
     0
  0
DIMSTYLE
105
2A2
102
{ACAD_REACTORS
330
2A1
330
309
102
}
330
A
100
AcDbSymbolTableRecord
100
AcDbDimStyleTableRecord
  2
SLDDIMSTYLE3
 70
     0
  3

  4

  5

  6

  7

 40
1.0
 41
0.262898763
 42
0.0625
 43
0.38
 44
0.0
 45
0.000000001
 46
0.0
 47
0.0
 48
0.0
140
0.262898763
141
0.09
142
0.0
143
25.4
144
1.0
145
0.0
146
1.0
147
0.0657246908
 71
     0
 72
     0
 73
     1
 74
     1
 75
     0
 76
     0
 77
     0
 78
    12
170
     1
171
     2
172
     1
173
     1
174
     0
175
     0
176
     0
177
     0
178
     0
270
     5
271
     6
272
     3
273
     2
274
     2
340
DD
275
     0
280
     0
281
     0
282
     0
283
     1
284
    12
285
     0
286
     0
288
     0
  0
DIMSTYLE
105
2B8
102
{ACAD_REACTORS
330
2B7
102
}
330
A
100
AcDbSymbolTableRecord
100
AcDbDimStyleTableRecord
  2
SLDDIMSTYLE4
 70
     0
  3

  4

  5

  6

  7

 40
1.0
 41
0.262898763
 42
0.0625
 43
0.38
 44
0.0
 45
0.000000001
 46
0.0
 47
0.0
 48
0.0
140
0.262898763
141
0.0
142
0.0
143
25.4
144
1.0
145
0.0
146
1.0
147
0.0657246908
 71
     0
 72
     0
 73
     1
 74
     1
 75
     0
 76
     0
 77
     0
 78
    12
170
     1
171
     2
172
     0
173
     1
174
     0
175
     0
176
     0
177
     0
178
     0
270
     5
271
     3
272
     3
273
     2
274
     2
340
DD
275
     0
280
     0
281
     0
282
     0
283
     1
284
    12
285
     0
286
     0
287
     3
288
     0
  0
DIMSTYLE
105
2E3
102
{ACAD_REACTORS
330
2E2
330
2F6
102
}
330
A
100
AcDbSymbolTableRecord
100
AcDbDimStyleTableRecord
  2
SLDDIMSTYLE5
 70
     0
  3

  4

  5

  6

  7

 40
1.0
 41
0.262898763
 42
0.0625
 43
0.38
 44
0.0
 45
0.000000001
 46
0.0
 47
0.0
 48
0.0
140
0.262898763
141
0.0
142
0.0
143
25.4
144
1.0
145
0.0
146
1.0
147
0.0657246908
 71
     0
 72
     0
 73
     1
 74
     1
 75
     0
 76
     0
 77
     0
 78
    12
170
     1
171
     2
172
     0
173
     1
174
     0
175
     0
176
     0
177
     0
178
     0
270
     5
271
     3
272
     3
273
     2
274
     2
340
DD
275
     0
280
     0
281
     0
282
     0
283
     1
284
    12
285
     0
286
     0
287
     4
288
     0
  0
DIMSTYLE
105
325
330
A
100
AcDbSymbolTableRecord
100
AcDbDimStyleTableRecord
  2
SLDDIMSTYLE6
 70
     0
  3

  4

  5

  6

  7

 40
1.0
 41
0.262898763
 42
0.0625
 43
0.38
 44
0.0
 45
0.000000001
 46
0.0
 47
0.0
 48
0.0
140
0.0
141
0.09
142
0.0
143
25.4
144
1.0
145
0.0
146
0.262898763
147
0.0
 71
     0
 72
     0
 73
     1
 74
     1
 75
     0
 76
     0
 77
     0
 78
     0
170
     0
171
     2
172
     0
173
     1
174
     0
175
     0
176
     0
177
     0
178
     0
270
     5
271
     0
272
     0
273
     2
274
     2
340
11
275
     0
280
     0
281
     0
282
     0
283
     1
284
     0
285
     0
286
     0
287
     3
288
     0
  0
ENDTAB
  0
TABLE
  2
BLOCK_RECORD
  5
1
330
0
100
AcDbSymbolTable
 70
    27
  0
BLOCK_RECORD
  5
1F
330
1
100
AcDbSymbolTableRecord
100
AcDbBlockTableRecord
  2
*MODEL_SPACE
  0
BLOCK_RECORD
  5
1B
330
1
100
AcDbSymbolTableRecord
100
AcDbBlockTableRecord
  2
*PAPER_SPACE
  0
BLOCK_RECORD
  5
23
330
1
100
AcDbSymbolTableRecord
100
AcDbBlockTableRecord
  2
*PAPER_SPACE0
  0
BLOCK_RECORD
  5
4B
330
1
100
AcDbSymbolTableRecord
100
AcDbBlockTableRecord
  2
REVEAL-__500
  0
BLOCK_RECORD
  5
CD
330
1
100
AcDbSymbolTableRecord
100
AcDbBlockTableRecord
  2
SW_BLOCK_DIMENSION_0
  0
BLOCK_RECORD
  5
E5
330
1
100
AcDbSymbolTableRecord
100
AcDbBlockTableRecord
  2
OVERHANG_-__125
  0
BLOCK_RECORD
  5
169
330
1
100
AcDbSymbolTableRecord
100
AcDbBlockTableRecord
  2
SW_BLOCK_DIMENSION_1
  0
BLOCK_RECORD
  5
1D0
330
1
100
AcDbSymbolTableRecord
100
AcDbBlockTableRecord
  2
_D
  0
BLOCK_RECORD
  5
1E3
330
1
100
AcDbSymbolTableRecord
100
AcDbBlockTableRecord
  2
_D_1
  0
BLOCK_RECORD
  5
1F7
330
1
100
AcDbSymbolTableRecord
100
AcDbBlockTableRecord
  2
_D_2
  0
BLOCK_RECORD
  5
20A
330
1
100
AcDbSymbolTableRecord
100
AcDbBlockTableRecord
  2
_D_3
  0
BLOCK_RECORD
  5
21E
330
1
100
AcDbSymbolTableRecord
100
AcDbBlockTableRecord
  2
_D_4
  0
BLOCK_RECORD
  5
233
330
1
100
AcDbSymbolTableRecord
100
AcDbBlockTableRecord
  2
_D_5
  0
BLOCK_RECORD
  5
243
330
1
100
AcDbSymbolTableRecord
100
AcDbBlockTableRecord
  2
_D_6
  0
BLOCK_RECORD
  5
253
330
1
100
AcDbSymbolTableRecord
100
AcDbBlockTableRecord
  2
_D_7
  0
BLOCK_RECORD
  5
268
330
1
100
AcDbSymbolTableRecord
100
AcDbBlockTableRecord
  2
_D_8
  0
BLOCK_RECORD
  5
27E
330
1
100
AcDbSymbolTableRecord
100
AcDbBlockTableRecord
  2
_D_9
  0
BLOCK_RECORD
  5
290
330
1
100
AcDbSymbolTableRecord
100
AcDbBlockTableRecord
  2
_D_10
  0
BLOCK_RECORD
  5
2A3
330
1
100
AcDbSymbolTableRecord
100
AcDbBlockTableRecord
  2
_D_11
  0
BLOCK_RECORD
  5
2B9
330
1
100
AcDbSymbolTableRecord
100
AcDbBlockTableRecord
  2
_D_12
  0
BLOCK_RECORD
  5
2CD
330
1
100
AcDbSymbolTableRecord
100
AcDbBlockTableRecord
  2
_D_13
  0
BLOCK_RECORD
  5
2E4
330
1
100
AcDbSymbolTableRecord
100
AcDbBlockTableRecord
  2
_D_14
  0
BLOCK_RECORD
  5
2F7
330
1
100
AcDbSymbolTableRecord
100
AcDbBlockTableRecord
  2
_D_15
  0
BLOCK_RECORD
  5
30A
330
1
100
AcDbSymbolTableRecord
100
AcDbBlockTableRecord
  2
_D_16
  0
BLOCK_RECORD
  5
31F
330
1
100
AcDbSymbolTableRecord
100
AcDbBlockTableRecord
  2
SW_NOTE_0
  0
BLOCK_RECORD
  5
327
330
1
100
AcDbSymbolTableRecord
100
AcDbBlockTableRecord
  2
SW_NOTE_1
  0
BLOCK_RECORD
  5
331
330
1
100
AcDbSymbolTableRecord
100
AcDbBlockTableRecord
  2
SW_NOTE_2
  0
BLOCK_RECORD
  5
338
330
1
100
AcDbSymbolTableRecord
100
AcDbBlockTableRecord
  2
SW_NOTE_3
  0
BLOCK_RECORD
  5
34B
330
1
100
AcDbSymbolTableRecord
100
AcDbBlockTableRecord
  2
SW_NOTE_4
  0
ENDTAB
  0
ENDSEC
  0
SECTION
  2
BLOCKS
  0
BLOCK
  5
20
330
1F
100
AcDbEntity
  8
0
100
AcDbBlockBegin
  2
*MODEL_SPACE
 70
     0
 10
0.0
 20
0.0
 30
0.0
  3
*MODEL_SPACE
  1

  0
ENDBLK
  5
21
330
1F
100
AcDbEntity
  8
0
100
AcDbBlockEnd
  0
BLOCK
  5
1C
330
1B
100
AcDbEntity
 67
     1
  8
0
100
AcDbBlockBegin
  2
*PAPER_SPACE
 70
     0
 10
0.0
 20
0.0
 30
0.0
  3
*PAPER_SPACE
  1

  0
ENDBLK
  5
1D
330
1B
100
AcDbEntity
 67
     1
  8
0
100
AcDbBlockEnd
  0
BLOCK
  5
24
330
23
100
AcDbEntity
  8
0
100
AcDbBlockBegin
  2
*PAPER_SPACE0
 70
     0
 10
0.0
 20
0.0
 30
0.0
  3
*PAPER_SPACE0
  1

  0
ENDBLK
  5
25
330
23
100
AcDbEntity
  8
0
100
AcDbBlockEnd
  0
BLOCK
  5
4C
330
4B
100
AcDbEntity
  8
0
100
AcDbBlockBegin
  2
REVEAL-__500
 70
     0
 10
0.0
 20
0.0
 30
0.0
  3
REVEAL-__500
  1

  0
ARC
  5
4E
330
4B
100
AcDbEntity
  8
BLOCKS
100
AcDbCircle
 10
20.1601934329
 20
28.8878838846
 30
0.0
 40
0.2338576391325233
100
AcDbArc
 50
0.0
 51
90.0
  0
ARC
  5
4F
330
4B
100
AcDbEntity
  8
BLOCKS
100
AcDbCircle
 10
19.8280715192
 20
29.4726468145
 30
0.0
 40
0.0659795528056719
100
AcDbArc
 50
0.0
 51
90.0
  0
ARC
  5
50
330
4B
100
AcDbEntity
  8
BLOCKS
100
AcDbCircle
 10
19.0470381676
 20
28.990848696
 30
0.0
 40
0.0881257319589152
100
AcDbArc
 50
200.9822712638
 51
339.0177287362
  0
ARC
  5
51
330
4B
100
AcDbEntity
  8
BLOCKS
100
AcDbCircle
 10
20.1601934329
 20
28.8878838846
 30
0.0
 40
0.1878262552218324
100
AcDbArc
 50
0.0
 51
90.0
  0
LINE
  5
52
330
4B
100
AcDbEntity
  8
BLOCKS
100
AcDbLine
 10
19.8280715192
 20
29.5386263673
 30
0.0
 11
18.2509355515
 21
29.5386263673
 31
0.0
  0
LINE
  5
53
330
4B
100
AcDbEntity
  8
BLOCKS
100
AcDbLine
 10
18.2806192052
 20
29.1434426864
 30
0.0
 11
19.894051072
 21
29.1434426864
 31
0.0
  0
LINE
  5
54
330
4B
100
AcDbEntity
  8
BLOCKS
100
AcDbLine
 10
19.3470309437
 20
29.1217415238
 30
0.0
 11
20.1601934329
 21
29.1217415238
 31
0.0
  0
LINE
  5
55
330
4B
100
AcDbEntity
  8
BLOCKS
100
AcDbLine
 10
20.394051072
 20
28.8878838846
 30
0.0
 11
20.394051072
 21
28.4971795949
 31
0.0
  0
LINE
  5
56
330
4B
100
AcDbEntity
  8
BLOCKS
100
AcDbLine
 10
20.394051072
 20
28.4971795949
 30
0.0
 11
20.3480196881
 21
28.4971795949
 31
0.0
  0
LINE
  5
57
330
4B
100
AcDbEntity
  8
BLOCKS
100
AcDbLine
 10
20.3480196881
 20
28.4971795949
 30
0.0
 11
20.3480196881
 21
28.8878838846
 31
0.0
  0
LINE
  5
58
330
4B
100
AcDbEntity
  8
BLOCKS
100
AcDbLine
 10
20.1601934329
 20
29.0757101398
 30
0.0
 11
19.3470309437
 21
29.0757101398
 31
0.0
  0
LINE
  5
59
330
4B
100
AcDbEntity
  8
BLOCKS
100
AcDbLine
 10
19.3470309437
 20
29.0757101398
 30
0.0
 11
19.3470309437
 21
29.1217415238
 31
0.0
  0
LINE
  5
5A
330
4B
100
AcDbEntity
  8
BLOCKS
100
AcDbLine
 10
19.679261078
 20
29.0223488565
 30
0.0
 11
19.7319208682
 21
29.073015856
 31
0.0
  0
LINE
  5
5B
330
4B
100
AcDbEntity
  8
BLOCKS
100
AcDbLine
 10
19.7319208682
 20
29.073015856
 30
0.0
 11
19.7745573648
 21
29.0287024176
 31
0.0
  0
LINE
  5
5C
330
4B
100
AcDbEntity
  8
BLOCKS
100
AcDbLine
 10
19.7745573648
 20
29.0287024176
 30
0.0
 11
19.705650009
 21
28.9624027047
 31
0.0
  0
LINE
  5
5D
330
4B
100
AcDbEntity
  8
BLOCKS
100
AcDbLine
 10
18.4381035755
 20
29.0888229672
 30
0.0
 11
18.385550816
 21
29.1434426864
 31
0.0
  0
LINE
  5
5E
330
4B
100
AcDbEntity
  8
BLOCKS
100
AcDbLine
 10
18.385550816
 20
29.1434426864
 30
0.0
 11
18.3431444562
 21
29.1026410993
 31
0.0
  0
LINE
  5
5F
330
4B
100
AcDbEntity
  8
BLOCKS
100
AcDbLine
 10
18.3431444562
 20
29.1026410993
 30
0.0
 11
18.4052557657
 21
29.0380868815
 31
0.0
  0
LINE
  5
60
330
4B
100
AcDbEntity
  8
BLOCKS
100
AcDbLine
 10
18.4381035755
 20
29.0888229672
 30
0.0
 11
19.679261078
 21
29.0223488565
 31
0.0
  0
LINE
  5
61
330
4B
100
AcDbEntity
  8
BLOCKS
100
AcDbLine
 10
19.705650009
 20
28.9624027047
 30
0.0
 11
18.4052557657
 21
29.0380868815
 31
0.0
  0
LINE
  5
62
330
4B
100
AcDbEntity
  8
BLOCKS
100
AcDbLine
 10
19.1283677378
 20
29.0518536895
 30
0.0
 11
19.1283677378
 21
28.9960010797
 31
0.0
  0
LINE
  5
63
330
4B
100
AcDbEntity
  8
BLOCKS
100
AcDbLine
 10
18.9737480593
 20
29.0601348348
 30
0.0
 11
18.9737480593
 21
29.0050000915
 31
0.0
  0
LINE
  5
64
330
4B
100
AcDbEntity
  8
BLOCKS
100
AcDbLine
 10
18.964755941
 20
28.9592927168
 30
0.0
 11
19.1293203942
 21
28.9592927168
 31
0.0
  0
LINE
  5
65
330
4B
100
AcDbEntity
  8
BLOCKS
100
AcDbLine
 10
19.0095275609
 20
29.3495924534
 30
0.0
 11
19.0095275609
 21
28.9592927168
 31
0.0
  0
LINE
  5
66
330
4B
100
AcDbEntity
  8
BLOCKS
100
AcDbLine
 10
19.0864194327
 20
29.3495924534
 30
0.0
 11
19.0864194327
 21
28.9592927168
 31
0.0
  0
LINE
  5
67
330
4B
100
AcDbEntity
  8
BLOCKS
100
AcDbLine
 10
18.9467524826
 20
29.0033177842
 30
0.0
 11
19.1591684741
 21
28.9909549723
 31
0.0
  0
LINE
  5
68
330
4B
100
AcDbEntity
  8
BLOCKS
100
AcDbLine
 10
19.0095275609
 20
29.3495924534
 30
0.0
 11
19.0474925407
 21
29.4047818344
 31
0.0
  0
LINE
  5
69
330
4B
100
AcDbEntity
  8
BLOCKS
100
AcDbLine
 10
19.0474925407
 20
29.4047818344
 30
0.0
 11
19.0864194327
 21
29.3495924534
 31
0.0
  0
LINE
  5
6A
330
4B
100
AcDbEntity
  8
BLOCKS
100
AcDbLine
 10
19.1572986604
 20
28.9588281114
 30
0.0
 11
18.9448826689
 21
28.9711909233
 31
0.0
  0
LINE
  5
6B
330
4B
100
AcDbEntity
  8
BLOCKS
100
AcDbLine
 10
19.1591684741
 20
28.9909549723
 30
0.0
 11
19.1572986604
 21
28.9588281114
 31
0.0
  0
LINE
  5
6C
330
4B
100
AcDbEntity
  8
BLOCKS
100
AcDbLine
 10
18.9467524826
 20
29.0033177842
 30
0.0
 11
18.9448826689
 21
28.9711909233
 31
0.0
  0
LINE
  5
6D
330
4B
100
AcDbEntity
  8
BLOCKS
100
AcDbLine
 10
19.1142839592
 20
29.1434426864
 30
0.0
 11
19.1142839592
 21
29.4238049236
 31
0.0
  0
LINE
  5
6E
330
4B
100
AcDbEntity
  8
BLOCKS
100
AcDbLine
 10
19.1142839592
 20
29.4238049236
 30
0.0
 11
18.9877469673
 21
29.4238049236
 31
0.0
  0
LINE
  5
6F
330
4B
100
AcDbEntity
  8
BLOCKS
100
AcDbLine
 10
18.9877469673
 20
29.4238049236
 30
0.0
 11
18.9877469673
 21
29.1434426864
 31
0.0
  0
LINE
  5
70
330
4B
100
AcDbEntity
  8
BLOCKS
  6
CONTINUOUS
100
AcDbLine
 10
19.894051072
 20
29.1434426864
 30
0.0
 11
19.894051072
 21
29.4726468145
 31
0.0
  0
LINE
  5
71
330
4B
100
AcDbEntity
  8
BLOCKS
100
AcDbLine
 10
19.3020232313
 20
29.1434426864
 30
0.0
 11
19.3470309437
 21
29.0987258318
 31
0.0
  0
LINE
  5
72
330
4B
100
AcDbEntity
  8
BLOCKS
100
AcDbLine
 10
19.894051072
 20
29.1434426864
 30
0.0
 11
19.9068063572
 21
29.1217415238
 31
0.0
  0
SPLINE
  5
73
330
4B
100
AcDbEntity
  8
BLOCKS
100
AcDbSpline
210
0.0
220
0.0
230
1.0
 70
     8
 71
     3
 72
     9
 73
     5
 74
     0
 42
0.00000001
 43
0.00000001
 12
1.0
 22
0.0
 32
0.0
 13
1.0
 23
0.0
 33
0.0
 40
0.0
 40
0.0
 40
0.0
 40
0.0
 40
0.5928291688347104
 40
1.0
 40
1.0
 40
1.0
 40
1.0
 10
18.28061920517429
 20
29.14344268635683
 30
0.0
 10
18.23604355296101
 20
29.22927712752978
 30
0.0
 10
18.31552651528452
 20
29.34850064146643
 30
0.0
 10
18.29741369383499
 20
29.50274888669875
 30
0.0
 10
18.25093555152442
 20
29.53862636728042
 30
0.0
  0
LINE
  5
74
330
4B
100
AcDbEntity
  8
BLOCKS
 62
    16
100
AcDbLine
 10
18.2853394197
 20
29.5106595711
 30
0.0
 11
18.3133062159
 21
29.5386263673
 31
0.0
  0
LINE
  5
75
330
4B
100
AcDbEntity
  8
BLOCKS
 62
    16
100
AcDbLine
 10
18.2988735511
 20
29.4358053548
 30
0.0
 11
18.3626792239
 21
29.4996110276
 31
0.0
  0
LINE
  5
76
330
4B
100
AcDbEntity
  8
BLOCKS
 62
    16
100
AcDbLine
 10
18.3737277674
 20
29.4222712234
 30
0.0
 11
18.484213202
 21
29.532756658
 31
0.0
  0
LINE
  5
77
330
4B
100
AcDbEntity
  8
BLOCKS
 62
    16
100
AcDbLine
 10
18.284928357
 20
29.3334718131
 30
0.0
 11
18.3295335936
 21
29.3780770496
 31
0.0
  0
LINE
  5
78
330
4B
100
AcDbEntity
  8
BLOCKS
 62
    16
100
AcDbLine
 10
18.4952617454
 20
29.4554168538
 30
0.0
 11
18.5784712589
 21
29.5386263673
 31
0.0
  0
LINE
  5
79
330
4B
100
AcDbEntity
  8
BLOCKS
 62
    16
100
AcDbLine
 10
18.340582137
 20
29.3007372454
 30
0.0
 11
18.4510675716
 21
29.41122268
 31
0.0
  0
LINE
  5
7A
330
4B
100
AcDbEntity
  8
BLOCKS
 62
    16
100
AcDbLine
 10
18.2618658043
 20
29.2220209127
 30
0.0
 11
18.2963879632
 21
29.2565430716
 31
0.0
  0
LINE
  5
7B
330
4B
100
AcDbEntity
  8
BLOCKS
 62
    16
100
AcDbLine
 10
18.6167957234
 20
29.4885624842
 30
0.0
 11
18.6668596065
 21
29.5386263673
 31
0.0
  0
LINE
  5
7C
330
4B
100
AcDbEntity
  8
BLOCKS
 62
    16
100
AcDbLine
 10
18.462116115
 20
29.3338828758
 30
0.0
 11
18.5726015496
 21
29.4443683103
 31
0.0
  0
LINE
  5
7D
330
4B
100
AcDbEntity
  8
BLOCKS
 62
    16
100
AcDbLine
 10
18.3074365067
 20
29.1792032674
 30
0.0
 11
18.4179219412
 21
29.289688702
 31
0.0
  0
LINE
  5
7E
330
4B
100
AcDbEntity
  8
BLOCKS
 62
    16
100
AcDbLine
 10
18.7383297014
 20
29.5217081145
 30
0.0
 11
18.7552479542
 21
29.5386263673
 31
0.0
  0
LINE
  5
7F
330
4B
100
AcDbEntity
  8
BLOCKS
 62
    16
100
AcDbLine
 10
18.5836500931
 20
29.3670285062
 30
0.0
 11
18.6941355276
 21
29.4775139407
 31
0.0
  0
LINE
  5
80
330
4B
100
AcDbEntity
  8
BLOCKS
 62
    16
100
AcDbLine
 10
18.4289704847
 20
29.2123488978
 30
0.0
 11
18.5394559192
 21
29.3228343323
 31
0.0
  0
LINE
  5
81
330
4B
100
AcDbEntity
  8
BLOCKS
 62
    16
100
AcDbLine
 10
18.3600642733
 20
29.1434426864
 30
0.0
 11
18.3847763109
 21
29.1681547239
 31
0.0
  0
LINE
  5
82
330
4B
100
AcDbEntity
  8
BLOCKS
 62
    16
100
AcDbLine
 10
18.7051840711
 20
29.4001741365
 30
0.0
 11
18.8156695056
 21
29.5106595711
 31
0.0
  0
LINE
  5
83
330
4B
100
AcDbEntity
  8
BLOCKS
 62
    16
100
AcDbLine
 10
18.5505044627
 20
29.2454945281
 30
0.0
 11
18.6609898973
 21
29.3559799627
 31
0.0
  0
LINE
  5
84
330
4B
100
AcDbEntity
  8
BLOCKS
 62
    16
100
AcDbLine
 10
18.4484526209
 20
29.1434426864
 30
0.0
 11
18.5063102889
 21
29.2013003543
 31
0.0
  0
LINE
  5
85
330
4B
100
AcDbEntity
  8
BLOCKS
 62
    16
100
AcDbLine
 10
18.8267180491
 20
29.4333197669
 30
0.0
 11
18.9320246495
 21
29.5386263673
 31
0.0
  0
LINE
  5
86
330
4B
100
AcDbEntity
  8
BLOCKS
 62
    16
100
AcDbLine
 10
18.6720384407
 20
29.2786401585
 30
0.0
 11
18.7825238753
 21
29.3891255931
 31
0.0
  0
LINE
  5
87
330
4B
100
AcDbEntity
  8
BLOCKS
 62
    16
100
AcDbLine
 10
18.5368409686
 20
29.1434426864
 30
0.0
 11
18.6278442669
 21
29.2344459847
 31
0.0
  0
LINE
  5
88
330
4B
100
AcDbEntity
  8
BLOCKS
 62
    16
100
AcDbLine
 10
18.9482520271
 20
29.4664653973
 30
0.0
 11
19.0204129971
 21
29.5386263673
 31
0.0
  0
LINE
  5
89
330
4B
100
AcDbEntity
  8
BLOCKS
 62
    16
100
AcDbLine
 10
18.7935724187
 20
29.3117857889
 30
0.0
 11
18.9040578533
 21
29.4222712234
 31
0.0
  0
LINE
  5
8A
330
4B
100
AcDbEntity
  8
BLOCKS
 62
    16
100
AcDbLine
 10
18.6388928103
 20
29.1571061805
 30
0.0
 11
18.7493782449
 21
29.267591615
 31
0.0
  0
LINE
  5
8B
330
4B
100
AcDbEntity
  8
BLOCKS
 62
    16
100
AcDbLine
 10
18.9151063967
 20
29.3449314192
 30
0.0
 11
18.9877469673
 21
29.4175719898
 31
0.0
  0
LINE
  5
8C
330
4B
100
AcDbEntity
  8
BLOCKS
 62
    16
100
AcDbLine
 10
18.7604267884
 20
29.1902518109
 30
0.0
 11
18.8709122229
 21
29.3007372454
 31
0.0
  0
LINE
  5
8D
330
4B
100
AcDbEntity
  8
BLOCKS
 62
    16
100
AcDbLine
 10
18.7136176639
 20
29.1434426864
 30
0.0
 11
18.7162326145
 21
29.146057637
 31
0.0
  0
LINE
  5
8E
330
4B
100
AcDbEntity
  8
BLOCKS
 62
    16
100
AcDbLine
 10
19.0697860051
 20
29.4996110276
 30
0.0
 11
19.1088013448
 21
29.5386263673
 31
0.0
  0
LINE
  5
8F
330
4B
100
AcDbEntity
  8
BLOCKS
 62
    16
100
AcDbLine
 10
18.993979901
 20
29.4238049236
 30
0.0
 11
19.0255918313
 21
29.4554168538
 31
0.0
  0
LINE
  5
90
330
4B
100
AcDbEntity
  8
BLOCKS
 62
    16
100
AcDbLine
 10
18.8819607664
 20
29.2233974412
 30
0.0
 11
18.9877469673
 21
29.3291836422
 31
0.0
  0
LINE
  5
91
330
4B
100
AcDbEntity
  8
BLOCKS
 62
    16
100
AcDbLine
 10
18.8020060115
 20
29.1434426864
 30
0.0
 11
18.8377665925
 21
29.1792032674
 31
0.0
  0
LINE
  5
92
330
4B
100
AcDbEntity
  8
BLOCKS
 62
    16
100
AcDbLine
 10
19.1913199831
 20
29.532756658
 30
0.0
 11
19.1971896924
 21
29.5386263673
 31
0.0
  0
LINE
  5
93
330
4B
100
AcDbEntity
  8
BLOCKS
 62
    16
100
AcDbLine
 10
19.0823682487
 20
29.4238049236
 30
0.0
 11
19.1471258093
 21
29.4885624842
 31
0.0
  0
LINE
  5
94
330
4B
100
AcDbEntity
  8
BLOCKS
 62
    16
100
AcDbLine
 10
18.8903943592
 20
29.1434426864
 30
0.0
 11
18.9593005706
 21
29.2123488978
 31
0.0
  0
LINE
  5
95
330
4B
100
AcDbEntity
  8
BLOCKS
 62
    16
100
AcDbLine
 10
19.1581743528
 20
29.41122268
 30
0.0
 11
19.2686597873
 21
29.5217081145
 31
0.0
  0
LINE
  5
96
330
4B
100
AcDbEntity
  8
BLOCKS
 62
    16
100
AcDbLine
 10
18.9787827068
 20
29.1434426864
 30
0.0
 11
18.9877469673
 21
29.1524069469
 31
0.0
  0
LINE
  5
97
330
4B
100
AcDbEntity
  8
BLOCKS
 62
    16
100
AcDbLine
 10
19.2797083308
 20
29.4443683103
 30
0.0
 11
19.3739663877
 21
29.5386263673
 31
0.0
  0
LINE
  5
98
330
4B
100
AcDbEntity
  8
BLOCKS
 62
    16
100
AcDbLine
 10
19.1250287224
 20
29.289688702
 30
0.0
 11
19.235514157
 21
29.4001741365
 31
0.0
  0
LINE
  5
99
330
4B
100
AcDbEntity
  8
BLOCKS
 62
    16
100
AcDbLine
 10
19.4012423088
 20
29.4775139407
 30
0.0
 11
19.4623547354
 21
29.5386263673
 31
0.0
  0
LINE
  5
9A
330
4B
100
AcDbEntity
  8
BLOCKS
 62
    16
100
AcDbLine
 10
19.2465627004
 20
29.3228343323
 30
0.0
 11
19.357048135
 21
29.4333197669
 31
0.0
  0
LINE
  5
9B
330
4B
100
AcDbEntity
  8
BLOCKS
 62
    16
100
AcDbLine
 10
19.1142839592
 20
29.1905555911
 30
0.0
 11
19.2023685266
 21
29.2786401585
 31
0.0
  0
LINE
  5
9C
330
4B
100
AcDbEntity
  8
BLOCKS
 62
    16
100
AcDbLine
 10
19.5227762868
 20
29.5106595711
 30
0.0
 11
19.550743083
 21
29.5386263673
 31
0.0
  0
LINE
  5
9D
330
4B
100
AcDbEntity
  8
BLOCKS
 62
    16
100
AcDbLine
 10
19.3680966784
 20
29.3559799627
 30
0.0
 11
19.478582113
 21
29.4664653973
 31
0.0
  0
LINE
  5
9E
330
4B
100
AcDbEntity
  8
BLOCKS
 62
    16
100
AcDbLine
 10
19.2134170701
 20
29.2013003543
 30
0.0
 11
19.3239025046
 21
29.3117857889
 31
0.0
  0
LINE
  5
9F
330
4B
100
AcDbEntity
  8
BLOCKS
 62
    16
100
AcDbLine
 10
19.1555594021
 20
29.1434426864
 30
0.0
 11
19.1692228962
 21
29.1571061805
 31
0.0
  0
LINE
  5
A0
330
4B
100
AcDbEntity
  8
BLOCKS
 62
    16
100
AcDbLine
 10
19.4896306565
 20
29.3891255931
 30
0.0
 11
19.600116091
 21
29.4996110276
 31
0.0
  0
LINE
  5
A1
330
4B
100
AcDbEntity
  8
BLOCKS
 62
    16
100
AcDbLine
 10
19.3349510481
 20
29.2344459847
 30
0.0
 11
19.4454364826
 21
29.3449314192
 31
0.0
  0
LINE
  5
A2
330
4B
100
AcDbEntity
  8
BLOCKS
 62
    16
100
AcDbLine
 10
19.2439477497
 20
29.1434426864
 30
0.0
 11
19.2907568742
 21
29.1902518109
 31
0.0
  0
LINE
  5
A3
330
4B
100
AcDbEntity
  8
BLOCKS
 62
    16
100
AcDbLine
 10
19.6111646345
 20
29.4222712234
 30
0.0
 11
19.721650069
 21
29.532756658
 31
0.0
  0
LINE
  5
A4
330
4B
100
AcDbEntity
  8
BLOCKS
 62
    16
100
AcDbLine
 10
19.4564850261
 20
29.267591615
 30
0.0
 11
19.5669704606
 21
29.3780770496
 31
0.0
  0
LINE
  5
A5
330
4B
100
AcDbEntity
  8
BLOCKS
 62
    16
100
AcDbLine
 10
19.3323360974
 20
29.1434426864
 30
0.0
 11
19.4122908523
 21
29.2233974412
 31
0.0
  0
LINE
  5
A6
330
4B
100
AcDbEntity
  8
BLOCKS
 62
    16
100
AcDbLine
 10
19.7326986125
 20
29.4554168538
 30
0.0
 11
19.815908126
 21
29.5386263673
 31
0.0
  0
LINE
  5
A7
330
4B
100
AcDbEntity
  8
BLOCKS
 62
    16
100
AcDbLine
 10
19.5780190041
 20
29.3007372454
 30
0.0
 11
19.6885044387
 21
29.41122268
 31
0.0
  0
LINE
  5
A8
330
4B
100
AcDbEntity
  8
BLOCKS
 62
    16
100
AcDbLine
 10
19.4233393957
 20
29.146057637
 30
0.0
 11
19.5338248303
 21
29.2565430716
 31
0.0
  0
LINE
  5
A9
330
4B
100
AcDbEntity
  8
BLOCKS
 62
    16
100
AcDbLine
 10
19.8542325905
 20
29.4885624842
 30
0.0
 11
19.8795667187
 21
29.5138966123
 31
0.0
  0
LINE
  5
AA
330
4B
100
AcDbEntity
  8
BLOCKS
 62
    16
100
AcDbLine
 10
19.6995529821
 20
29.3338828758
 30
0.0
 11
19.8100384167
 21
29.4443683103
 31
0.0
  0
LINE
  5
AB
330
4B
100
AcDbEntity
  8
BLOCKS
 62
    16
100
AcDbLine
 10
19.5448733737
 20
29.1792032674
 30
0.0
 11
19.6553588083
 21
29.289688702
 31
0.0
  0
LINE
  5
AC
330
4B
100
AcDbEntity
  8
BLOCKS
 62
    16
100
AcDbLine
 10
19.8210869601
 20
29.3670285062
 30
0.0
 11
19.894051072
 21
29.439992618
 31
0.0
  0
LINE
  5
AD
330
4B
100
AcDbEntity
  8
BLOCKS
 62
    16
100
AcDbLine
 10
19.6664073518
 20
29.2123488978
 30
0.0
 11
19.7768927863
 21
29.3228343323
 31
0.0
  0
LINE
  5
AE
330
4B
100
AcDbEntity
  8
BLOCKS
 62
    16
100
AcDbLine
 10
19.5975011403
 20
29.1434426864
 30
0.0
 11
19.6222131779
 21
29.1681547239
 31
0.0
  0
LINE
  5
AF
330
4B
100
AcDbEntity
  8
BLOCKS
 62
    16
100
AcDbLine
 10
19.7879413298
 20
29.2454945281
 30
0.0
 11
19.894051072
 21
29.3516042704
 31
0.0
  0
LINE
  5
B0
330
4B
100
AcDbEntity
  8
BLOCKS
 62
    16
100
AcDbLine
 10
19.685889488
 20
29.1434426864
 30
0.0
 11
19.7437471559
 21
29.2013003543
 31
0.0
  0
LINE
  5
B1
330
4B
100
AcDbEntity
  8
BLOCKS
 62
    16
100
AcDbLine
 10
19.7742778356
 20
29.1434426864
 30
0.0
 11
19.865281134
 21
29.2344459847
 31
0.0
  0
LINE
  5
B2
330
4B
100
AcDbEntity
  8
BLOCKS
 62
    16
100
AcDbLine
 10
19.8763296774
 20
29.1571061805
 30
0.0
 11
19.894051072
 21
29.1748275751
 31
0.0
  0
LINE
  5
B3
330
4B
100
AcDbEntity
  8
BLOCKS
 62
    16
100
AcDbLine
 10
19.0540492515
 20
29.3954859264
 30
0.0
 11
19.0125511605
 21
29.3539878353
 31
0.0
  0
LINE
  5
B4
330
4B
100
AcDbEntity
  8
BLOCKS
 62
    16
100
AcDbLine
 10
19.0864194327
 20
29.3394677599
 30
0.0
 11
19.0095275609
 21
29.2625758881
 31
0.0
  0
LINE
  5
B5
330
4B
100
AcDbEntity
  8
BLOCKS
 62
    16
100
AcDbLine
 10
19.0864194327
 20
29.2510794123
 30
0.0
 11
19.0095275609
 21
29.1741875405
 31
0.0
  0
LINE
  5
B6
330
4B
100
AcDbEntity
  8
BLOCKS
 62
    16
100
AcDbLine
 10
19.0864194327
 20
29.1626910646
 30
0.0
 11
19.0671710544
 21
29.1434426864
 31
0.0
  0
LINE
  5
B7
330
4B
100
AcDbEntity
  8
BLOCKS
 62
    16
100
AcDbLine
 10
19.066235184
 20
29.3782090764
 30
0.0
 11
19.0095275609
 21
29.3215014533
 31
0.0
  0
LINE
  5
B8
330
4B
100
AcDbEntity
  8
BLOCKS
 62
    16
100
AcDbLine
 10
19.0864194327
 20
29.3100049774
 30
0.0
 11
19.0095275609
 21
29.2331131056
 31
0.0
  0
LINE
  5
B9
330
4B
100
AcDbEntity
  8
BLOCKS
 62
    16
100
AcDbLine
 10
19.0864194327
 20
29.2216166298
 30
0.0
 11
19.0095275609
 21
29.144724758
 31
0.0
  0
LINE
  5
BA
330
4B
100
AcDbEntity
  8
BLOCKS
 62
    16
100
AcDbLine
 10
19.0671710544
 20
29.1434426864
 30
0.0
 11
19.0095275609
 21
29.0857991928
 31
0.0
  0
LINE
  5
BB
330
4B
100
AcDbEntity
  8
BLOCKS
 62
    16
100
AcDbLine
 10
19.0864194327
 20
29.074302717
 30
0.0
 11
19.0672440761
 21
29.0551273603
 31
0.0
  0
LINE
  5
BC
330
4B
100
AcDbEntity
  8
BLOCKS
 62
    16
100
AcDbLine
 10
19.0864194327
 20
29.1332282821
 30
0.0
 11
19.0113140216
 21
29.0581228711
 31
0.0
  0
LINE
  5
BD
330
4B
100
AcDbEntity
  8
BLOCKS
 62
    16
100
AcDbLine
 10
19.0672440761
 20
29.0551273603
 30
0.0
 11
19.0147315304
 21
29.0026148146
 31
0.0
  0
LINE
  5
BE
330
4B
100
AcDbEntity
  8
BLOCKS
 62
    16
100
AcDbLine
 10
19.0113140216
 20
29.0581228711
 30
0.0
 11
19.0095275609
 21
29.0563364103
 31
0.0
  0
LINE
  5
BF
330
4B
100
AcDbEntity
  8
BLOCKS
 62
    16
100
AcDbLine
 10
19.0864194327
 20
29.0448399345
 30
0.0
 11
19.0425738628
 21
29.0009943645
 31
0.0
  0
LINE
  5
C0
330
4B
100
AcDbEntity
  8
BLOCKS
 62
    16
100
AcDbLine
 10
19.0116569958
 20
28.9995402801
 30
0.0
 11
19.0095275609
 21
28.9974108452
 31
0.0
  0
LINE
  5
C1
330
4B
100
AcDbEntity
  8
BLOCKS
 62
    16
100
AcDbLine
 10
19.0864194327
 20
28.9859143693
 30
0.0
 11
19.0647212668
 21
28.9642162034
 31
0.0
  0
LINE
  5
C2
330
4B
100
AcDbEntity
  8
BLOCKS
 62
    16
100
AcDbLine
 10
19.0394993282
 20
28.9979198299
 30
0.0
 11
19.0095275609
 21
28.9679480627
 31
0.0
  0
LINE
  5
C3
330
4B
100
AcDbEntity
  8
BLOCKS
 62
    16
100
AcDbLine
 10
19.0095275609
 20
28.9974108452
 30
0.0
 11
18.9811942695
 21
28.9690775538
 31
0.0
  0
LINE
  5
C4
330
4B
100
AcDbEntity
  8
BLOCKS
 62
    16
100
AcDbLine
 10
18.9559723309
 20
29.0027811803
 30
0.0
 11
18.946149557
 21
28.9929584064
 31
0.0
  0
LINE
  5
C5
330
4B
100
AcDbEntity
  8
BLOCKS
 62
    16
100
AcDbLine
 10
19.0095275609
 20
28.9679480627
 30
0.0
 11
19.0090366019
 21
28.9674571036
 31
0.0
  0
LINE
  5
C6
330
4B
100
AcDbEntity
  8
BLOCKS
 62
    16
100
AcDbLine
 10
19.0951839931
 20
28.9946789297
 30
0.0
 11
19.0864194327
 21
28.9859143693
 31
0.0
  0
LINE
  5
C7
330
4B
100
AcDbEntity
  8
BLOCKS
 62
    16
100
AcDbLine
 10
19.1578905048
 20
28.9689970938
 30
0.0
 11
19.1482482641
 21
28.959354853
 31
0.0
  0
LINE
  5
C8
330
4B
100
AcDbEntity
  8
BLOCKS
 62
    16
100
AcDbLine
 10
19.1230263255
 20
28.9930584796
 30
0.0
 11
19.0925635992
 21
28.9625957533
 31
0.0
  0
LINE
  5
C9
330
4B
100
AcDbEntity
  8
BLOCKS
 62
    16
100
AcDbLine
 10
18.9714094326
 20
28.9592927168
 30
0.0
 11
18.9667139662
 21
28.9545972505
 31
0.0
  0
LINE
  5
CA
330
4B
100
AcDbEntity
  8
BLOCKS
 62
    16
100
AcDbLine
 10
19.0597977802
 20
28.9592927168
 30
0.0
 11
19.0109541882
 21
28.9104491248
 31
0.0
  0
LINE
  5
CB
330
4B
100
AcDbEntity
  8
BLOCKS
 62
    16
100
AcDbLine
 10
19.0008722151
 20
28.9592927168
 30
0.0
 11
18.9778485343
 21
28.9362690361
 31
0.0
  0
LINE
  5
CC
330
4B
100
AcDbEntity
  8
BLOCKS
 62
    16
100
AcDbLine
 10
19.0892605627
 20
28.9592927168
 30
0.0
 11
19.0337052462
 21
28.9037374003
 31
0.0
  0
INSERT
  5
E4
330
4B
100
AcDbEntity
  8
BLOCKS
100
AcDbBlockReference
  2
SW_BLOCK_DIMENSION_0
 10
19.8746516971
 20
29.6493704876
 30
0.0
  0
ENDBLK
  5
4D
330
4B
100
AcDbEntity
  8
0
100
AcDbBlockEnd
  0
BLOCK
  5
CE
330
CD
100
AcDbEntity
  8
0
100
AcDbBlockBegin
  2
SW_BLOCK_DIMENSION_0
 70
     0
 10
0.0
 20
0.0
 30
0.0
  3
SW_BLOCK_DIMENSION_0
  1

  0
SOLID
  5
D0
330
CD
100
AcDbEntity
  8
BLOCKS
 62
     0
100
AcDbTrace
 10
0.5193993749
 20
-0.0313006311
 30
0.0
 11
0.6205142837
 21
-0.0468567709
 31
0.0
 12
0.6205142837
 22
-0.0157444913
 32
0.0
 13
0.6205142837
 23
-0.0157444913
 33
0.0
  0
SOLID
  5
D1
330
CD
100
AcDbEntity
  8
BLOCKS
 62
     0
100
AcDbTrace
 10
0.0193993749
 20
-0.0313006311
 30
0.0
 11
-0.081715534
 21
-0.0157444913
 31
0.0
 12
-0.081715534
 22
-0.0468567709
 32
0.0
 13
-0.081715534
 23
-0.0468567709
 33
0.0
  0
LINE
  5
D2
330
CD
100
AcDbEntity
  8
BLOCKS
 62
     0
100
AcDbLine
 10
0.2036072721
 20
0.0798201425
 30
0.0
 11
0.3102816564
 21
0.0798201425
 31
0.0
  0
LINE
  5
D3
330
CD
100
AcDbEntity
  8
BLOCKS
 62
     0
100
AcDbLine
 10
0.079089508
 20
-0.0940224566
 30
0.0
 11
0.0559413594
 21
-0.0940224566
 31
0.0
  0
LINE
  5
D4
330
CD
100
AcDbEntity
  8
BLOCKS
 62
     0
100
AcDbLine
 10
0.0559413594
 20
-0.0940224566
 30
0.0
 11
0.0559413594
 21
-0.249307956
 31
0.0
  0
LINE
  5
D5
330
CD
100
AcDbEntity
  8
BLOCKS
 62
     0
100
AcDbLine
 10
0.0559413594
 20
-0.249307956
 30
0.0
 11
0.079089508
 21
-0.249307956
 31
0.0
  0
LINE
  5
D6
330
CD
100
AcDbEntity
  8
BLOCKS
 62
     0
100
AcDbLine
 10
0.4841821217
 20
-0.0940224566
 30
0.0
 11
0.5073302703
 21
-0.0940224566
 31
0.0
  0
LINE
  5
D7
330
CD
100
AcDbEntity
  8
BLOCKS
 62
     0
100
AcDbLine
 10
0.5073302703
 20
-0.0940224566
 30
0.0
 11
0.5073302703
 21
-0.249307956
 31
0.0
  0
LINE
  5
D8
330
CD
100
AcDbEntity
  8
BLOCKS
 62
     0
100
AcDbLine
 10
0.5073302703
 20
-0.249307956
 30
0.0
 11
0.4841821217
 21
-0.249307956
 31
0.0
  0
LINE
  5
D9
330
CD
100
AcDbEntity
  8
BLOCKS
 62
     0
100
AcDbLine
 10
0.5193993749
 20
-0.711486603
 30
0.0
 11
0.5193993749
 21
0.0936993689
 31
0.0
  0
LINE
  5
DA
330
CD
100
AcDbEntity
  8
BLOCKS
 62
     0
100
AcDbLine
 10
0.0193993749
 20
-0.1267236731
 30
0.0
 11
0.0193993749
 21
0.0936993689
 31
0.0
  0
LINE
  5
DB
330
CD
100
AcDbEntity
  8
BLOCKS
 62
     0
100
AcDbLine
 10
0.5193993749
 20
-0.0313006311
 30
0.0
 11
0.7138511227
 21
-0.0313006311
 31
0.0
  0
LINE
  5
DC
330
CD
100
AcDbEntity
  8
BLOCKS
 62
     0
100
AcDbLine
 10
0.0193993749
 20
-0.0313006311
 30
0.0
 11
-0.1750523729
 21
-0.0313006311
 31
0.0
  0
MTEXT
  5
DE
330
CD
100
AcDbEntity
  8
BLOCKS
 62
     0
100
AcDbMText
 10
0.0
 20
0.1342778896
 30
0.0039370079
 40
0.1041666667
 41
0.0
 71
     1
 72
     1
  1
 
  7
SLDTEXTSTYLE0
  0
MTEXT
  5
DF
330
CD
100
AcDbEntity
  8
BLOCKS
 62
     0
100
AcDbMText
 10
0.2183642158
 20
0.2052438631
 30
0.0039370079
 40
0.1041666667
 41
0.0
 71
     1
 72
     1
  1
1
  7
SLDTEXTSTYLE0
  0
MTEXT
  5
E0
330
CD
100
AcDbEntity
  8
BLOCKS
 62
     0
100
AcDbMText
 10
0.2183642158
 20
0.0634035871
 30
0.0039370079
 40
0.1041666667
 41
0.0
 71
     1
 72
     1
  1
2
  7
SLDTEXTSTYLE0
  0
MTEXT
  5
E1
330
CD
100
AcDbEntity
  8
BLOCKS
 62
     0
100
AcDbMText
 10
0.3250386001
 20
0.1342778896
 30
0.0039370079
 40
0.1041666667
 41
0.0
 71
     1
 72
     1
  1
"
  7
SLDTEXTSTYLE0
  0
MTEXT
  5
E2
330
CD
100
AcDbEntity
  8
BLOCKS
 62
     0
100
AcDbMText
 10
0.1080246921
 20
-0.1150300596
 30
0.0039370079
 40
0.1041666667
 41
0.0
 71
     1
 72
     1
  1
12.70
  7
SLDTEXTSTYLE0
  0
MTEXT
  5
E3
330
CD
100
AcDbEntity
  8
BLOCKS
 62
     0
100
AcDbMText
 10
0.5246914087
 20
0.1342778896
 30
0.0039370079
 40
0.1041666667
 41
0.0
 71
     1
 72
     1
  1
 
  7
SLDTEXTSTYLE0
  0
ENDBLK
  5
CF
330
CD
100
AcDbEntity
  8
0
100
AcDbBlockEnd
  0
BLOCK
  5
E6
330
E5
100
AcDbEntity
  8
0
100
AcDbBlockBegin
  2
OVERHANG_-__125
 70
     0
 10
0.0
 20
0.0
 30
0.0
  3
OVERHANG_-__125
  1

  0
ARC
  5
E8
330
E5
100
AcDbEntity
  8
0
  6
CONTINUOUS
 62
    16
100
AcDbCircle
 10
21.0247390722
 20
26.9140495115
 30
0.0
 40
0.0659795528056719
100
AcDbArc
 50
0.0
 51
90.0
  0
ARC
  5
E9
330
E5
100
AcDbEntity
  8
0
  6
CONTINUOUS
 62
    16
100
AcDbCircle
 10
20.0403577083
 20
26.4212514943
 30
0.0
 40
0.0881257319589152
100
AcDbArc
 50
200.9822712638
 51
339.0177287362
  0
ARC
  5
EA
330
E5
100
AcDbEntity
  8
0
  6
CONTINUOUS
 62
    16
100
AcDbCircle
 10
20.731618625
 20
26.3139893982
 30
0.0
 40
0.1880000000000024
100
AcDbArc
 50
0.0
 51
90.0
  0
ARC
  5
EB
330
E5
100
AcDbEntity
  8
0
  6
CONTINUOUS
 62
    16
100
AcDbCircle
 10
20.731618625
 20
26.3139893982
 30
0.0
 40
0.2341000000000015
100
AcDbArc
 50
0.0
 51
90.0
  0
ARC
  5
EC
330
E5
100
AcDbEntity
  8
BLOCKS
100
AcDbCircle
 10
21.3249668066
 20
26.3001927866
 30
0.0
 40
0.3686452378780193
100
AcDbArc
 50
129.4518716023
 51
170.6861521435
  0
LINE
  5
ED
330
E5
100
AcDbEntity
  8
0
  6
CONTINUOUS
 62
    16
100
AcDbLine
 10
19.4314231162
 20
26.5192257655
 30
0.0
 11
19.3788703567
 21
26.5738454846
 31
0.0
  0
LINE
  5
EE
330
E5
100
AcDbEntity
  8
0
  6
CONTINUOUS
 62
    16
100
AcDbLine
 10
20.0408120814
 20
26.8351846327
 30
0.0
 11
20.0797389734
 21
26.7799952517
 31
0.0
  0
LINE
  5
EF
330
E5
100
AcDbEntity
  8
0
  6
CONTINUOUS
 62
    16
100
AcDbLine
 10
19.3788703567
 20
26.5738454846
 30
0.0
 11
19.3364639969
 21
26.5330438976
 31
0.0
  0
LINE
  5
F0
330
E5
100
AcDbEntity
  8
0
  6
CONTINUOUS
 62
    16
100
AcDbLine
 10
20.6725806187
 20
26.4527516548
 30
0.0
 11
20.7252404088
 21
26.5034186543
 31
0.0
  0
LINE
  5
F1
330
E5
100
AcDbEntity
  8
0
  6
CONTINUOUS
 62
    16
100
AcDbLine
 10
20.0797389734
 20
26.7799952517
 30
0.0
 11
20.0797389734
 21
26.3896955151
 31
0.0
  0
LINE
  5
F2
330
E5
100
AcDbEntity
  8
0
  6
CONTINUOUS
 62
    16
100
AcDbLine
 10
19.9814774532
 20
26.8652076206
 30
0.0
 11
19.9814774532
 21
26.5848453834
 31
0.0
  0
LINE
  5
F3
330
E5
100
AcDbEntity
  8
0
  6
CONTINUOUS
 62
    16
100
AcDbLine
 10
20.7678769055
 20
26.4591052159
 30
0.0
 11
20.6989695496
 21
26.392805503
 31
0.0
  0
LINE
  5
F4
330
E5
100
AcDbEntity
  8
0
  6
CONTINUOUS
 62
    16
100
AcDbLine
 10
21.0247390722
 20
26.9800290643
 30
0.0
 11
19.2446660374
 21
26.9800290643
 31
0.0
  0
LINE
  5
F5
330
E5
100
AcDbEntity
  8
0
  6
CONTINUOUS
 62
    16
100
AcDbLine
 10
19.9670675999
 20
26.4905376331
 30
0.0
 11
19.9670675999
 21
26.4354028898
 31
0.0
  0
LINE
  5
F6
330
E5
100
AcDbEntity
  8
0
  6
CONTINUOUS
 62
    16
100
AcDbLine
 10
20.1524880148
 20
26.4213577706
 30
0.0
 11
20.1506182011
 21
26.3892309097
 31
0.0
  0
LINE
  5
F7
330
E5
100
AcDbEntity
  8
0
  6
CONTINUOUS
 62
    16
100
AcDbLine
 10
19.3364639969
 20
26.5330438976
 30
0.0
 11
19.3985753063
 21
26.4684896798
 31
0.0
  0
LINE
  5
F8
330
E5
100
AcDbEntity
  8
0
  6
CONTINUOUS
 62
    16
100
AcDbLine
 10
20.2906117643
 20
26.5019893982
 30
0.0
 11
20.2906117643
 21
26.5480893982
 31
0.0
  0
LINE
  5
F9
330
E5
100
AcDbEntity
  8
0
  6
CONTINUOUS
 62
    16
100
AcDbLine
 10
19.4314231162
 20
26.5192257655
 30
0.0
 11
20.6725806187
 21
26.4527516548
 31
0.0
  0
LINE
  5
FA
330
E5
100
AcDbEntity
  8
0
  6
CONTINUOUS
 62
    16
100
AcDbLine
 10
19.9400720233
 20
26.4337205825
 30
0.0
 11
20.1524880148
 21
26.4213577706
 31
0.0
  0
LINE
  5
FB
330
E5
100
AcDbEntity
  8
0
  6
CONTINUOUS
 62
    16
100
AcDbLine
 10
21.090718625
 20
26.5848453834
 30
0.0
 11
21.090718625
 21
26.9140495115
 31
0.0
  0
LINE
  5
FC
330
E5
100
AcDbEntity
  8
0
  6
CONTINUOUS
 62
    16
100
AcDbLine
 10
20.731618625
 20
26.5019893982
 30
0.0
 11
20.2906117643
 21
26.5019893982
 31
0.0
  0
LINE
  5
FD
330
E5
100
AcDbEntity
  8
0
  6
CONTINUOUS
 62
    16
100
AcDbLine
 10
20.919618625
 20
25.9230893982
 30
0.0
 11
20.919618625
 21
26.3139893982
 31
0.0
  0
LINE
  5
FE
330
E5
100
AcDbEntity
  8
0
  6
CONTINUOUS
 62
    16
100
AcDbLine
 10
19.9580754817
 20
26.3896955151
 30
0.0
 11
20.1226399348
 21
26.3896955151
 31
0.0
  0
LINE
  5
FF
330
E5
100
AcDbEntity
  8
0
  6
CONTINUOUS
 62
    16
100
AcDbLine
 10
20.1506182011
 20
26.3892309097
 30
0.0
 11
19.9382022095
 21
26.4015937216
 31
0.0
  0
LINE
  5
100
330
E5
100
AcDbEntity
  8
0
  6
CONTINUOUS
 62
    16
100
AcDbLine
 10
20.965718625
 20
25.9230893982
 30
0.0
 11
20.919618625
 21
25.9230893982
 31
0.0
  0
LINE
  5
101
330
E5
100
AcDbEntity
  8
0
  6
CONTINUOUS
 62
    16
100
AcDbLine
 10
20.965718625
 20
26.3139893982
 30
0.0
 11
20.965718625
 21
25.9230893982
 31
0.0
  0
LINE
  5
102
330
E5
100
AcDbEntity
  8
0
  6
CONTINUOUS
 62
    16
100
AcDbLine
 10
20.6989695496
 20
26.392805503
 30
0.0
 11
19.3985753063
 21
26.4684896798
 31
0.0
  0
LINE
  5
103
330
E5
100
AcDbEntity
  8
0
  6
CONTINUOUS
 62
    16
100
AcDbLine
 10
19.2743496911
 20
26.5848453834
 30
0.0
 11
21.090718625
 21
26.5848453834
 31
0.0
  0
LINE
  5
104
330
E5
100
AcDbEntity
  8
0
  6
CONTINUOUS
 62
    16
100
AcDbLine
 10
20.0028471016
 20
26.7799952517
 30
0.0
 11
20.0408120814
 21
26.8351846327
 31
0.0
  0
LINE
  5
105
330
E5
100
AcDbEntity
  8
0
  6
CONTINUOUS
 62
    16
100
AcDbLine
 10
20.2906117643
 20
26.5480893982
 30
0.0
 11
20.731618625
 21
26.5480893982
 31
0.0
  0
LINE
  5
106
330
E5
100
AcDbEntity
  8
0
  6
CONTINUOUS
 62
    16
100
AcDbLine
 10
20.0028471016
 20
26.7799952517
 30
0.0
 11
20.0028471016
 21
26.3896955151
 31
0.0
  0
LINE
  5
107
330
E5
100
AcDbEntity
  8
0
  6
CONTINUOUS
 62
    16
100
AcDbLine
 10
20.1080144451
 20
26.8652076206
 30
0.0
 11
19.9814774532
 21
26.8652076206
 31
0.0
  0
LINE
  5
108
330
E5
100
AcDbEntity
  8
0
  6
CONTINUOUS
 62
    16
100
AcDbLine
 10
20.7252404088
 20
26.5034186543
 30
0.0
 11
20.7678769055
 21
26.4591052159
 31
0.0
  0
LINE
  5
109
330
E5
100
AcDbEntity
  8
0
  6
CONTINUOUS
 62
    16
100
AcDbLine
 10
19.9400720233
 20
26.4337205825
 30
0.0
 11
19.9382022095
 21
26.4015937216
 31
0.0
  0
LINE
  5
10A
330
E5
100
AcDbEntity
  8
0
  6
CONTINUOUS
 62
    16
100
AcDbLine
 10
20.1080144451
 20
26.5848453834
 30
0.0
 11
20.1080144451
 21
26.8652076206
 31
0.0
  0
LINE
  5
10B
330
E5
100
AcDbEntity
  8
0
  6
CONTINUOUS
 62
    16
100
AcDbLine
 10
20.1216872784
 20
26.4822564878
 30
0.0
 11
20.1216872784
 21
26.426403878
 31
0.0
  0
LINE
  5
10C
330
E5
100
AcDbEntity
  8
BLOCKS
100
AcDbLine
 10
20.2906117643
 20
26.5480893982
 30
0.0
 11
20.2368944426
 21
26.5848453834
 31
0.0
  0
SPLINE
  5
10D
330
E5
100
AcDbEntity
  8
0
  6
CONTINUOUS
 62
    16
100
AcDbSpline
210
0.0
220
0.0
230
1.0
 70
     8
 71
     3
 72
     9
 73
     5
 74
     0
 42
0.00000001
 43
0.00000001
 12
1.0
 22
0.0
 32
0.0
 13
1.0
 23
0.0
 33
0.0
 40
0.0
 40
0.0
 40
0.0
 40
0.0
 40
0.5928291688347104
 40
1.0
 40
1.0
 40
1.0
 40
1.0
 10
19.27434969107827
 20
26.58484538338648
 30
0.0
 10
19.22977403886498
 20
26.67067982455945
 30
0.0
 10
19.3092570011885
 20
26.78990333849607
 30
0.0
 10
19.29114417973896
 20
26.9441515837284
 30
0.0
 10
19.24466603742839
 20
26.98002906431008
 30
0.0
  0
LINE
  5
10E
330
E5
100
AcDbEntity
  8
BLOCKS
 62
    16
100
AcDbLine
 10
19.2797083308
 20
26.9694945762
 30
0.0
 11
19.2902428189
 21
26.9800290643
 31
0.0
  0
LINE
  5
10F
330
E5
100
AcDbEntity
  8
BLOCKS
 62
    16
100
AcDbLine
 10
19.2911656048
 20
26.8925635026
 30
0.0
 11
19.357048135
 21
26.9584460327
 31
0.0
  0
LINE
  5
110
330
E5
100
AcDbEntity
  8
BLOCKS
 62
    16
100
AcDbLine
 10
19.3680966784
 20
26.8811062285
 30
0.0
 11
19.4670195142
 21
26.9800290643
 31
0.0
  0
LINE
  5
111
330
E5
100
AcDbEntity
  8
BLOCKS
 62
    16
100
AcDbLine
 10
19.2844193657
 20
26.7974289158
 30
0.0
 11
19.3239025046
 21
26.8369120547
 31
0.0
  0
LINE
  5
112
330
E5
100
AcDbEntity
  8
BLOCKS
 62
    16
100
AcDbLine
 10
19.4896306565
 20
26.9142518589
 30
0.0
 11
19.5554078619
 21
26.9800290643
 31
0.0
  0
LINE
  5
113
330
E5
100
AcDbEntity
  8
BLOCKS
 62
    16
100
AcDbLine
 10
19.3349510481
 20
26.7595722505
 30
0.0
 11
19.4454364826
 21
26.8700576851
 31
0.0
  0
LINE
  5
114
330
E5
100
AcDbEntity
  8
BLOCKS
 62
    16
100
AcDbLine
 10
19.2567000322
 20
26.6813212347
 30
0.0
 11
19.2907568742
 21
26.7153780767
 31
0.0
  0
LINE
  5
115
330
E5
100
AcDbEntity
  8
BLOCKS
 62
    16
100
AcDbLine
 10
19.6111646345
 20
26.9473974893
 30
0.0
 11
19.6437962095
 21
26.9800290643
 31
0.0
  0
LINE
  5
116
330
E5
100
AcDbEntity
  8
BLOCKS
 62
    16
100
AcDbLine
 10
19.4564850261
 20
26.7927178809
 30
0.0
 11
19.5669704606
 21
26.9032033155
 31
0.0
  0
LINE
  5
117
330
E5
100
AcDbEntity
  8
BLOCKS
 62
    16
100
AcDbLine
 10
19.3018054177
 20
26.6380382725
 30
0.0
 11
19.4122908523
 21
26.7485237071
 31
0.0
  0
LINE
  5
118
330
E5
100
AcDbEntity
  8
BLOCKS
 62
    16
100
AcDbLine
 10
19.5780190041
 20
26.8258635113
 30
0.0
 11
19.6885044387
 21
26.9363489458
 31
0.0
  0
LINE
  5
119
330
E5
100
AcDbEntity
  8
BLOCKS
 62
    16
100
AcDbLine
 10
19.4233393957
 20
26.6711839029
 30
0.0
 11
19.5338248303
 21
26.7816693374
 31
0.0
  0
LINE
  5
11A
330
E5
100
AcDbEntity
  8
BLOCKS
 62
    16
100
AcDbLine
 10
19.3370008762
 20
26.5848453834
 30
0.0
 11
19.3791452219
 21
26.6269897291
 31
0.0
  0
LINE
  5
11B
330
E5
100
AcDbEntity
  8
BLOCKS
 62
    16
100
AcDbLine
 10
19.6995529821
 20
26.8590091416
 30
0.0
 11
19.8100384167
 21
26.9694945762
 31
0.0
  0
LINE
  5
11C
330
E5
100
AcDbEntity
  8
BLOCKS
 62
    16
100
AcDbLine
 10
19.5448733737
 20
26.7043295332
 30
0.0
 11
19.6553588083
 21
26.8148149678
 31
0.0
  0
LINE
  5
11D
330
E5
100
AcDbEntity
  8
BLOCKS
 62
    16
100
AcDbLine
 10
19.4253892239
 20
26.5848453834
 30
0.0
 11
19.5006791999
 21
26.6601353594
 31
0.0
  0
LINE
  5
11E
330
E5
100
AcDbEntity
  8
BLOCKS
 62
    16
100
AcDbLine
 10
19.8210869601
 20
26.892154772
 30
0.0
 11
19.9089612524
 21
26.9800290643
 31
0.0
  0
LINE
  5
11F
330
E5
100
AcDbEntity
  8
BLOCKS
 62
    16
100
AcDbLine
 10
19.6664073518
 20
26.7374751636
 30
0.0
 11
19.7768927863
 21
26.8479605982
 31
0.0
  0
LINE
  5
120
330
E5
100
AcDbEntity
  8
BLOCKS
 62
    16
100
AcDbLine
 10
19.5137775715
 20
26.5848453834
 30
0.0
 11
19.6222131779
 21
26.6932809898
 31
0.0
  0
LINE
  5
121
330
E5
100
AcDbEntity
  8
BLOCKS
 62
    16
100
AcDbLine
 10
19.9426209382
 20
26.9253004024
 30
0.0
 11
19.9973496001
 21
26.9800290643
 31
0.0
  0
LINE
  5
122
330
E5
100
AcDbEntity
  8
BLOCKS
 62
    16
100
AcDbLine
 10
19.7879413298
 20
26.770620794
 30
0.0
 11
19.8984267643
 21
26.8811062285
 31
0.0
  0
LINE
  5
123
330
E5
100
AcDbEntity
  8
BLOCKS
 62
    16
100
AcDbLine
 10
19.6332617214
 20
26.6159411856
 30
0.0
 11
19.7437471559
 21
26.7264266202
 31
0.0
  0
LINE
  5
124
330
E5
100
AcDbEntity
  8
BLOCKS
 62
    16
100
AcDbLine
 10
20.0641549162
 20
26.9584460327
 30
0.0
 11
20.0857379477
 21
26.9800290643
 31
0.0
  0
LINE
  5
125
330
E5
100
AcDbEntity
  8
BLOCKS
 62
    16
100
AcDbLine
 10
19.9094753078
 20
26.8037664244
 30
0.0
 11
20.0199607423
 21
26.9142518589
 31
0.0
  0
LINE
  5
126
330
E5
100
AcDbEntity
  8
BLOCKS
 62
    16
100
AcDbLine
 10
19.7547956994
 20
26.649086816
 30
0.0
 11
19.865281134
 21
26.7595722505
 31
0.0
  0
LINE
  5
127
330
E5
100
AcDbEntity
  8
BLOCKS
 62
    16
100
AcDbLine
 10
19.6905542668
 20
26.5848453834
 30
0.0
 11
19.7106015256
 21
26.6048926421
 31
0.0
  0
LINE
  5
128
330
E5
100
AcDbEntity
  8
BLOCKS
 62
    16
100
AcDbLine
 10
19.8763296774
 20
26.6822324463
 30
0.0
 11
19.9814774532
 21
26.7873802221
 31
0.0
  0
LINE
  5
129
330
E5
100
AcDbEntity
  8
BLOCKS
 62
    16
100
AcDbLine
 10
19.7789426145
 20
26.5848453834
 30
0.0
 11
19.8321355036
 21
26.6380382725
 31
0.0
  0
LINE
  5
12A
330
E5
100
AcDbEntity
  8
BLOCKS
 62
    16
100
AcDbLine
 10
20.0593048517
 20
26.8652076206
 30
0.0
 11
20.1414947204
 21
26.9473974893
 31
0.0
  0
LINE
  5
12B
330
E5
100
AcDbEntity
  8
BLOCKS
 62
    16
100
AcDbLine
 10
19.8673309621
 20
26.5848453834
 30
0.0
 11
19.9536694816
 21
26.6711839029
 31
0.0
  0
LINE
  5
12C
330
E5
100
AcDbEntity
  8
BLOCKS
 62
    16
100
AcDbLine
 10
20.1525432638
 20
26.8700576851
 30
0.0
 11
20.262514643
 21
26.9800290643
 31
0.0
  0
LINE
  5
12D
330
E5
100
AcDbEntity
  8
BLOCKS
 62
    16
100
AcDbLine
 10
20.1080144451
 20
26.8255288664
 30
0.0
 11
20.10834909
 21
26.8258635113
 31
0.0
  0
LINE
  5
12E
330
E5
100
AcDbEntity
  8
BLOCKS
 62
    16
100
AcDbLine
 10
19.9647180251
 20
26.5938440987
 30
0.0
 11
19.9814774532
 21
26.6106035268
 31
0.0
  0
LINE
  5
12F
330
E5
100
AcDbEntity
  8
BLOCKS
 62
    16
100
AcDbLine
 10
20.2740772418
 20
26.9032033155
 30
0.0
 11
20.3509029907
 21
26.9800290643
 31
0.0
  0
LINE
  5
130
330
E5
100
AcDbEntity
  8
BLOCKS
 62
    16
100
AcDbLine
 10
20.1193976334
 20
26.7485237071
 30
0.0
 11
20.229883068
 21
26.8590091416
 31
0.0
  0
LINE
  5
131
330
E5
100
AcDbEntity
  8
BLOCKS
 62
    16
100
AcDbLine
 10
20.3956112198
 20
26.9363489458
 30
0.0
 11
20.4392913383
 21
26.9800290643
 31
0.0
  0
LINE
  5
132
330
E5
100
AcDbEntity
  8
BLOCKS
 62
    16
100
AcDbLine
 10
20.2409316115
 20
26.7816693374
 30
0.0
 11
20.351417046
 21
26.892154772
 31
0.0
  0
LINE
  5
133
330
E5
100
AcDbEntity
  8
BLOCKS
 62
    16
100
AcDbLine
 10
20.1080144451
 20
26.6487521711
 30
0.0
 11
20.1967374376
 21
26.7374751636
 31
0.0
  0
LINE
  5
134
330
E5
100
AcDbEntity
  8
BLOCKS
 62
    16
100
AcDbLine
 10
20.5171451979
 20
26.9694945762
 30
0.0
 11
20.527679686
 21
26.9800290643
 31
0.0
  0
LINE
  5
135
330
E5
100
AcDbEntity
  8
BLOCKS
 62
    16
100
AcDbLine
 10
20.3624655895
 20
26.8148149678
 30
0.0
 11
20.472951024
 21
26.9253004024
 31
0.0
  0
LINE
  5
136
330
E5
100
AcDbEntity
  8
BLOCKS
 62
    16
100
AcDbLine
 10
20.2077859811
 20
26.6601353594
 30
0.0
 11
20.3182714157
 21
26.770620794
 31
0.0
  0
LINE
  5
137
330
E5
100
AcDbEntity
  8
BLOCKS
 62
    16
100
AcDbLine
 10
20.1324960051
 20
26.5848453834
 30
0.0
 11
20.1635918073
 21
26.6159411856
 31
0.0
  0
LINE
  5
138
330
E5
100
AcDbEntity
  8
BLOCKS
 62
    16
100
AcDbLine
 10
20.4839995675
 20
26.8479605982
 30
0.0
 11
20.5944850021
 21
26.9584460327
 31
0.0
  0
LINE
  5
139
330
E5
100
AcDbEntity
  8
BLOCKS
 62
    16
100
AcDbLine
 10
20.3293199591
 20
26.6932809898
 30
0.0
 11
20.4398053937
 21
26.8037664244
 31
0.0
  0
LINE
  5
13A
330
E5
100
AcDbEntity
  8
BLOCKS
 62
    16
100
AcDbLine
 10
20.2208843527
 20
26.5848453834
 30
0.0
 11
20.2851257853
 21
26.649086816
 31
0.0
  0
LINE
  5
13B
330
E5
100
AcDbEntity
  8
BLOCKS
 62
    16
100
AcDbLine
 10
20.6055335455
 20
26.8811062285
 30
0.0
 11
20.7044563813
 21
26.9800290643
 31
0.0
  0
LINE
  5
13C
330
E5
100
AcDbEntity
  8
BLOCKS
 62
    16
100
AcDbLine
 10
20.4508539371
 20
26.7264266202
 30
0.0
 11
20.5613393717
 21
26.8369120547
 31
0.0
  0
LINE
  5
13D
330
E5
100
AcDbEntity
  8
BLOCKS
 62
    16
100
AcDbLine
 10
20.3092727004
 20
26.5848453834
 30
0.0
 11
20.4066597633
 21
26.6822324463
 31
0.0
  0
LINE
  5
13E
330
E5
100
AcDbEntity
  8
BLOCKS
 62
    16
100
AcDbLine
 10
20.7270675235
 20
26.9142518589
 30
0.0
 11
20.7928447289
 21
26.9800290643
 31
0.0
  0
LINE
  5
13F
330
E5
100
AcDbEntity
  8
BLOCKS
 62
    16
100
AcDbLine
 10
20.5723879151
 20
26.7595722505
 30
0.0
 11
20.6828733497
 21
26.8700576851
 31
0.0
  0
LINE
  5
140
330
E5
100
AcDbEntity
  8
BLOCKS
 62
    16
100
AcDbLine
 10
20.4177083068
 20
26.6048926421
 30
0.0
 11
20.5281937413
 21
26.7153780767
 31
0.0
  0
LINE
  5
141
330
E5
100
AcDbEntity
  8
BLOCKS
 62
    16
100
AcDbLine
 10
20.8486015015
 20
26.9473974893
 30
0.0
 11
20.8812330766
 21
26.9800290643
 31
0.0
  0
LINE
  5
142
330
E5
100
AcDbEntity
  8
BLOCKS
 62
    16
100
AcDbLine
 10
20.6939218932
 20
26.7927178809
 30
0.0
 11
20.8044073277
 21
26.9032033155
 31
0.0
  0
LINE
  5
143
330
E5
100
AcDbEntity
  8
BLOCKS
 62
    16
100
AcDbLine
 10
20.5392422848
 20
26.6380382725
 30
0.0
 11
20.6497277193
 21
26.7485237071
 31
0.0
  0
LINE
  5
144
330
E5
100
AcDbEntity
  8
BLOCKS
 62
    16
100
AcDbLine
 10
20.4860493957
 20
26.5848453834
 30
0.0
 11
20.495048111
 21
26.5938440987
 31
0.0
  0
LINE
  5
145
330
E5
100
AcDbEntity
  8
BLOCKS
 62
    16
100
AcDbLine
 10
20.8154558712
 20
26.8258635113
 30
0.0
 11
20.9259413057
 21
26.9363489458
 31
0.0
  0
LINE
  5
146
330
E5
100
AcDbEntity
  8
BLOCKS
 62
    16
100
AcDbLine
 10
20.6607762628
 20
26.6711839029
 30
0.0
 11
20.7712616974
 21
26.7816693374
 31
0.0
  0
LINE
  5
147
330
E5
100
AcDbEntity
  8
BLOCKS
 62
    16
100
AcDbLine
 10
20.5744377433
 20
26.5848453834
 30
0.0
 11
20.616582089
 21
26.6269897291
 31
0.0
  0
LINE
  5
148
330
E5
100
AcDbEntity
  8
BLOCKS
 62
    16
100
AcDbLine
 10
20.9369898492
 20
26.8590091416
 30
0.0
 11
21.0474752838
 21
26.9694945762
 31
0.0
  0
LINE
  5
149
330
E5
100
AcDbEntity
  8
BLOCKS
 62
    16
100
AcDbLine
 10
20.7823102408
 20
26.7043295332
 30
0.0
 11
20.8927956754
 21
26.8148149678
 31
0.0
  0
LINE
  5
14A
330
E5
100
AcDbEntity
  8
BLOCKS
 62
    16
100
AcDbLine
 10
20.6628260909
 20
26.5848453834
 30
0.0
 11
20.738116067
 21
26.6601353594
 31
0.0
  0
LINE
  5
14B
330
E5
100
AcDbEntity
  8
BLOCKS
 62
    16
100
AcDbLine
 10
21.0585238272
 20
26.892154772
 30
0.0
 11
21.090016757
 21
26.9236477017
 31
0.0
  0
LINE
  5
14C
330
E5
100
AcDbEntity
  8
BLOCKS
 62
    16
100
AcDbLine
 10
20.9038442188
 20
26.7374751636
 30
0.0
 11
21.0143296534
 21
26.8479605982
 31
0.0
  0
LINE
  5
14D
330
E5
100
AcDbEntity
  8
BLOCKS
 62
    16
100
AcDbLine
 10
20.7512144386
 20
26.5848453834
 30
0.0
 11
20.859650045
 21
26.6932809898
 31
0.0
  0
LINE
  5
14E
330
E5
100
AcDbEntity
  8
BLOCKS
 62
    16
100
AcDbLine
 10
21.0253781968
 20
26.770620794
 30
0.0
 11
21.090718625
 21
26.8359612221
 31
0.0
  0
LINE
  5
14F
330
E5
100
AcDbEntity
  8
BLOCKS
 62
    16
100
AcDbLine
 10
20.8706985885
 20
26.6159411856
 30
0.0
 11
20.981184023
 21
26.7264266202
 31
0.0
  0
LINE
  5
150
330
E5
100
AcDbEntity
  8
BLOCKS
 62
    16
100
AcDbLine
 10
20.9922325665
 20
26.649086816
 30
0.0
 11
21.090718625
 21
26.7475728745
 31
0.0
  0
LINE
  5
151
330
E5
100
AcDbEntity
  8
BLOCKS
 62
    16
100
AcDbLine
 10
20.9279911339
 20
26.5848453834
 30
0.0
 11
20.9480383927
 21
26.6048926421
 31
0.0
  0
LINE
  5
152
330
E5
100
AcDbEntity
  8
BLOCKS
 62
    16
100
AcDbLine
 10
21.0163794815
 20
26.5848453834
 30
0.0
 11
21.0695723707
 21
26.6380382725
 31
0.0
  0
LINE
  5
153
330
E5
100
AcDbEntity
  8
BLOCKS
 62
    16
100
AcDbLine
 10
20.0087523184
 20
26.5848453834
 30
0.0
 11
20.0028471016
 21
26.5789401666
 31
0.0
  0
LINE
  5
154
330
E5
100
AcDbEntity
  8
BLOCKS
 62
    16
100
AcDbLine
 10
20.0797389734
 20
26.5497660213
 30
0.0
 11
20.0177937842
 21
26.4878208321
 31
0.0
  0
LINE
  5
155
330
E5
100
AcDbEntity
  8
BLOCKS
 62
    16
100
AcDbLine
 10
20.0441076574
 20
26.5848453834
 30
0.0
 11
20.0028471016
 21
26.5435848276
 31
0.0
  0
LINE
  5
156
330
E5
100
AcDbEntity
  8
BLOCKS
 62
    16
100
AcDbLine
 10
20.0797389734
 20
26.5144106823
 30
0.0
 11
20.0513518168
 21
26.4860235256
 31
0.0
  0
LINE
  5
157
330
E5
100
AcDbEntity
  8
BLOCKS
 62
    16
100
AcDbLine
 10
20.0433546937
 20
26.8315797931
 30
0.0
 11
20.0272622411
 21
26.8154873405
 31
0.0
  0
LINE
  5
158
330
E5
100
AcDbEntity
  8
BLOCKS
 62
    16
100
AcDbLine
 10
20.0797389734
 20
26.7618980556
 30
0.0
 11
20.0028471016
 21
26.6850061838
 31
0.0
  0
LINE
  5
159
330
E5
100
AcDbEntity
  8
BLOCKS
 62
    16
100
AcDbLine
 10
20.0797389734
 20
26.6558320384
 30
0.0
 11
20.0087523184
 21
26.5848453834
 31
0.0
  0
LINE
  5
15A
330
E5
100
AcDbEntity
  8
BLOCKS
 62
    16
100
AcDbLine
 10
20.0579778128
 20
26.8108475731
 30
0.0
 11
20.0028471016
 21
26.755716862
 31
0.0
  0
LINE
  5
15B
330
E5
100
AcDbEntity
  8
BLOCKS
 62
    16
100
AcDbLine
 10
20.0797389734
 20
26.7265427166
 30
0.0
 11
20.0028471016
 21
26.6496508448
 31
0.0
  0
LINE
  5
15C
330
E5
100
AcDbEntity
  8
BLOCKS
 62
    16
100
AcDbLine
 10
20.0797389734
 20
26.6204766994
 30
0.0
 11
20.0441076574
 21
26.5848453834
 31
0.0
  0
LINE
  5
15D
330
E5
100
AcDbEntity
  8
BLOCKS
 62
    16
100
AcDbLine
 10
20.0177937842
 20
26.4878208321
 30
0.0
 11
20.0028471016
 21
26.4728741495
 31
0.0
  0
LINE
  5
15E
330
E5
100
AcDbEntity
  8
BLOCKS
 62
    16
100
AcDbLine
 10
20.0797389734
 20
26.4437000041
 30
0.0
 11
20.0657012852
 21
26.4296623158
 31
0.0
  0
LINE
  5
15F
330
E5
100
AcDbEntity
  8
BLOCKS
 62
    16
100
AcDbLine
 10
20.0513518168
 20
26.4860235256
 30
0.0
 11
20.0028471016
 21
26.4375188105
 31
0.0
  0
LINE
  5
160
330
E5
100
AcDbEntity
  8
BLOCKS
 62
    16
100
AcDbLine
 10
19.9623943538
 20
26.4324214017
 30
0.0
 11
19.9386122699
 21
26.4086393177
 31
0.0
  0
LINE
  5
161
330
E5
100
AcDbEntity
  8
BLOCKS
 62
    16
100
AcDbLine
 10
19.9958051527
 20
26.4304768616
 30
0.0
 11
19.9653424264
 21
26.4000141353
 31
0.0
  0
LINE
  5
162
330
E5
100
AcDbEntity
  8
BLOCKS
 62
    16
100
AcDbLine
 10
20.0626267506
 20
26.4265877813
 30
0.0
 11
20.0321640243
 21
26.396125055
 31
0.0
  0
LINE
  5
163
330
E5
100
AcDbEntity
  8
BLOCKS
 62
    16
100
AcDbLine
 10
20.0797389734
 20
26.4083446651
 30
0.0
 11
20.0655748231
 21
26.3941805148
 31
0.0
  0
LINE
  5
164
330
E5
100
AcDbEntity
  8
BLOCKS
 62
    16
100
AcDbLine
 10
20.1518098018
 20
26.4097048153
 30
0.0
 11
20.132396421
 21
26.3902914345
 31
0.0
  0
LINE
  5
165
330
E5
100
AcDbEntity
  8
BLOCKS
 62
    16
100
AcDbLine
 10
20.0960375494
 20
26.4246432411
 30
0.0
 11
20.0797389734
 21
26.4083446651
 31
0.0
  0
LINE
  5
166
330
E5
100
AcDbEntity
  8
BLOCKS
 62
    16
100
AcDbLine
 10
20.0257344844
 20
26.3896955151
 30
0.0
 11
19.9870876076
 21
26.3510486382
 31
0.0
  0
LINE
  5
167
330
E5
100
AcDbEntity
  8
BLOCKS
 62
    16
100
AcDbLine
 10
20.1119018845
 20
26.369796898
 30
0.0
 11
20.0918123046
 21
26.3497073181
 31
0.0
  0
LINE
  5
168
330
E5
100
AcDbEntity
  8
BLOCKS
 62
    16
100
AcDbLine
 10
20.0610898234
 20
26.3896955151
 30
0.0
 11
20.0099370923
 21
26.338542784
 31
0.0
  0
INSERT
  5
17E
330
E5
100
AcDbEntity
  8
BLOCKS
100
AcDbBlockReference
  2
SW_BLOCK_DIMENSION_1
 10
20.4071081795
 20
26.145611376
 30
0.0
  0
ENDBLK
  5
E7
330
E5
100
AcDbEntity
  8
0
100
AcDbBlockEnd
  0
BLOCK
  5
16A
330
169
100
AcDbEntity
  8
0
100
AcDbBlockBegin
  2
SW_BLOCK_DIMENSION_1
 70
     0
 10
0.0
 20
0.0
 30
0.0
  3
SW_BLOCK_DIMENSION_1
  1

  0
SOLID
  5
16C
330
169
100
AcDbEntity
  8
BLOCKS
 62
     0
100
AcDbTrace
 10
0.5586104454
 20
-0.0313006311
 30
0.0
 11
0.4574955366
 21
-0.0157444913
 31
0.0
 12
0.4574955366
 22
-0.0468567709
 32
0.0
 13
0.4574955366
 23
-0.0468567709
 33
0.0
  0
SOLID
  5
16D
330
169
100
AcDbEntity
  8
BLOCKS
 62
     0
100
AcDbTrace
 10
0.6836104454
 20
-0.0313006311
 30
0.0
 11
0.7847253543
 21
-0.0468567709
 31
0.0
 12
0.7847253543
 22
-0.0157444913
 32
0.0
 13
0.7847253543
 23
-0.0157444913
 33
0.0
  0
LINE
  5
16E
330
169
100
AcDbEntity
  8
BLOCKS
 62
     0
100
AcDbLine
 10
0.1650270144
 20
0.0798201425
 30
0.0
 11
0.2717013988
 21
0.0798201425
 31
0.0
  0
LINE
  5
16F
330
169
100
AcDbEntity
  8
BLOCKS
 62
     0
100
AcDbLine
 10
0.079089508
 20
-0.0940224566
 30
0.0
 11
0.0559413594
 21
-0.0940224566
 31
0.0
  0
LINE
  5
170
330
169
100
AcDbEntity
  8
BLOCKS
 62
     0
100
AcDbLine
 10
0.0559413594
 20
-0.0940224566
 30
0.0
 11
0.0559413594
 21
-0.249307956
 31
0.0
  0
LINE
  5
171
330
169
100
AcDbEntity
  8
BLOCKS
 62
     0
100
AcDbLine
 10
0.0559413594
 20
-0.249307956
 30
0.0
 11
0.079089508
 21
-0.249307956
 31
0.0
  0
LINE
  5
172
330
169
100
AcDbEntity
  8
BLOCKS
 62
     0
100
AcDbLine
 10
0.4070216247
 20
-0.0940224566
 30
0.0
 11
0.4301697734
 21
-0.0940224566
 31
0.0
  0
LINE
  5
173
330
169
100
AcDbEntity
  8
BLOCKS
 62
     0
100
AcDbLine
 10
0.4301697734
 20
-0.0940224566
 30
0.0
 11
0.4301697734
 21
-0.249307956
 31
0.0
  0
LINE
  5
174
330
169
100
AcDbEntity
  8
BLOCKS
 62
     0
100
AcDbLine
 10
0.4301697734
 20
-0.249307956
 30
0.0
 11
0.4070216247
 21
-0.249307956
 31
0.0
  0
LINE
  5
175
330
169
100
AcDbEntity
  8
BLOCKS
 62
     0
100
AcDbLine
 10
0.6836104454
 20
0.3892340074
 30
0.0
 11
0.6836104454
 21
-0.1563006311
 31
0.0
  0
LINE
  5
176
330
169
100
AcDbEntity
  8
BLOCKS
 62
     0
100
AcDbLine
 10
0.5586104454
 20
-0.0313006311
 30
0.0
 11
0.4867967501
 21
-0.0313006311
 31
0.0
  0
LINE
  5
177
330
169
100
AcDbEntity
  8
BLOCKS
 62
     0
100
AcDbLine
 10
0.6836104454
 20
-0.0313006311
 30
0.0
 11
0.8780621932
 21
-0.0313006311
 31
0.0
  0
MTEXT
  5
178
330
169
100
AcDbEntity
  8
BLOCKS
 62
     0
100
AcDbMText
 10
0.0
 20
0.1342778896
 30
0.0039370079
 40
0.1041666667
 41
0.0
 71
     1
 72
     1
  1
 
  7
SLDTEXTSTYLE0
  0
MTEXT
  5
179
330
169
100
AcDbEntity
  8
BLOCKS
 62
     0
100
AcDbMText
 10
0.1797839581
 20
0.2052438631
 30
0.0039370079
 40
0.1041666667
 41
0.0
 71
     1
 72
     1
  1
1
  7
SLDTEXTSTYLE0
  0
MTEXT
  5
17A
330
169
100
AcDbEntity
  8
BLOCKS
 62
     0
100
AcDbMText
 10
0.1797839581
 20
0.0634035871
 30
0.0039370079
 40
0.1041666667
 41
0.0
 71
     1
 72
     1
  1
8
  7
SLDTEXTSTYLE0
  0
MTEXT
  5
17B
330
169
100
AcDbEntity
  8
BLOCKS
 62
     0
100
AcDbMText
 10
0.2864583425
 20
0.1342778896
 30
0.0039370079
 40
0.1041666667
 41
0.0
 71
     1
 72
     1
  1
"
  7
SLDTEXTSTYLE0
  0
MTEXT
  5
17C
330
169
100
AcDbEntity
  8
BLOCKS
 62
     0
100
AcDbMText
 10
0.1080246921
 20
-0.1150300596
 30
0.0039370079
 40
0.1041666667
 41
0.0
 71
     1
 72
     1
  1
3.18
  7
SLDTEXTSTYLE0
  0
MTEXT
  5
17D
330
169
100
AcDbEntity
  8
BLOCKS
 62
     0
100
AcDbMText
 10
0.4475308934
 20
0.1342778896
 30
0.0039370079
 40
0.1041666667
 41
0.0
 71
     1
 72
     1
  1
 
  7
SLDTEXTSTYLE0
  0
ENDBLK
  5
16B
330
169
100
AcDbEntity
  8
0
100
AcDbBlockEnd
  0
BLOCK
  5
1D1
330
1D0
100
AcDbEntity
  8
0
100
AcDbBlockBegin
  2
_D
 70
     0
 10
0.0
 20
0.0
 30
0.0
  3
_D
  1

  0
SOLID
  5
1D3
330
1D0
100
AcDbEntity
  8
DIMS
100
AcDbTrace
 10
25.4448980062
 20
19.7136126981
 30
0.0
 11
25.5326707154
 21
19.4625199123
 31
0.0
 12
25.6040848379
 22
19.5005136879
 32
0.0
 13
25.6040848379
 23
19.5005136879
 33
0.0
  0
LINE
  5
1D4
330
1D0
100
AcDbEntity
  8
DIMS
100
AcDbLine
 10
26.9238656703
 20
18.8674140334
 30
0.0
 11
27.2012190513
 21
18.8674140334
 31
0.0
  0
LINE
  5
1D5
330
1D0
100
AcDbEntity
  8
DIMS
100
AcDbLine
 10
26.3694096413
 20
18.4154233057
 30
0.0
 11
26.3092244553
 21
18.4154233057
 31
0.0
  0
LINE
  5
1D6
330
1D0
100
AcDbEntity
  8
DIMS
100
AcDbLine
 10
26.3092244553
 20
18.4154233057
 30
0.0
 11
26.3092244553
 21
18.0116810364
 31
0.0
  0
LINE
  5
1D7
330
1D0
100
AcDbEntity
  8
DIMS
100
AcDbLine
 10
26.3092244553
 20
18.0116810364
 30
0.0
 11
26.3694096413
 21
18.0116810364
 31
0.0
  0
LINE
  5
1D8
330
1D0
100
AcDbEntity
  8
DIMS
100
AcDbLine
 10
27.4226503708
 20
18.4154233057
 30
0.0
 11
27.4828355568
 21
18.4154233057
 31
0.0
  0
LINE
  5
1D9
330
1D0
100
AcDbEntity
  8
DIMS
100
AcDbLine
 10
27.4828355568
 20
18.4154233057
 30
0.0
 11
27.4828355568
 21
18.0116810364
 31
0.0
  0
LINE
  5
1DA
330
1D0
100
AcDbEntity
  8
DIMS
100
AcDbLine
 10
27.4828355568
 20
18.0116810364
 30
0.0
 11
27.4226503708
 21
18.0116810364
 31
0.0
  0
LINE
  5
1DB
330
1D0
100
AcDbEntity
  8
DIMS
100
AcDbLine
 10
25.4448980062
 20
19.7136126981
 30
0.0
 11
26.0140855647
 21
18.643752453
 31
0.0
  0
LINE
  5
1DC
330
1D0
100
AcDbEntity
  8
DIMS
100
AcDbLine
 10
26.0140855647
 20
18.643752453
 30
0.0
 11
26.2640855647
 21
18.643752453
 31
0.0
  0
MTEXT
  5
1DD
330
1D0
100
AcDbEntity
  8
DIMS
100
AcDbMText
 10
26.4240778731
 20
19.0090041987
 30
0.0039370079
 40
0.2708333333
 41
0.0
 71
     1
 72
     1
  1
R1
  7
SLDTEXTSTYLE0
  0
MTEXT
  5
1DE
330
1D0
100
AcDbEntity
  8
DIMS
100
AcDbMText
 10
26.9622337221
 20
19.1935157188
 30
0.0039370079
 40
0.2708333333
 41
0.0
 71
     1
 72
     1
  1
7
  7
SLDTEXTSTYLE0
  0
MTEXT
  5
1DF
330
1D0
100
AcDbEntity
  8
DIMS
100
AcDbMText
 10
26.9622337221
 20
18.8247309816
 30
0.0039370079
 40
0.2708333333
 41
0.0
 71
     1
 72
     1
  1
8
  7
SLDTEXTSTYLE0
  0
MTEXT
  5
1E0
330
1D0
100
AcDbEntity
  8
DIMS
100
AcDbMText
 10
27.2395871122
 20
19.0090041987
 30
0.0039370079
 40
0.2708333333
 41
0.0
 71
     1
 72
     1
  1
"
  7
SLDTEXTSTYLE0
  0
MTEXT
  5
1E1
330
1D0
100
AcDbEntity
  8
DIMS
100
AcDbMText
 10
26.4446411272
 20
18.3608035401
 30
0.0039370079
 40
0.2708333333
 41
0.0
 71
     1
 72
     1
  1
47.63
  7
SLDTEXTSTYLE0
  0
ENDBLK
  5
1D2
330
1D0
100
AcDbEntity
  8
0
100
AcDbBlockEnd
  0
BLOCK
  5
1E4
330
1E3
100
AcDbEntity
  8
0
100
AcDbBlockBegin
  2
_D_1
 70
     0
 10
0.0
 20
0.0
 30
0.0
  3
_D_1
  1

  0
ARC
  5
1E6
330
1E3
100
AcDbEntity
  8
DIMS
100
AcDbCircle
 10
14.5297270853
 20
21.3689259593
 30
0.0
 40
1.250000000000001
100
AcDbArc
 50
217.3057914983
 51
223.7107087627
  0
SOLID
  5
1E7
330
1E3
100
AcDbEntity
  8
DIMS
100
AcDbTrace
 10
13.6157787809
 20
20.5161666164
 30
0.0
 11
13.3959655393
 21
20.3663875311
 31
0.0
 12
13.4511506166
 22
20.3072426994
 32
0.0
 13
13.4511506166
 23
20.3072426994
 33
0.0
  0
LINE
  5
1E8
330
1E3
100
AcDbEntity
  8
DIMS
100
AcDbLine
 10
11.5835803304
 20
19.6406118191
 30
0.0
 11
11.8609337114
 21
19.6406118191
 31
0.0
  0
LINE
  5
1E9
330
1E3
100
AcDbEntity
  8
DIMS
100
AcDbLine
 10
11.0291243014
 20
19.1886210913
 30
0.0
 11
10.9689391154
 21
19.1886210913
 31
0.0
  0
LINE
  5
1EA
330
1E3
100
AcDbEntity
  8
DIMS
100
AcDbLine
 10
10.9689391154
 20
19.1886210913
 30
0.0
 11
10.9689391154
 21
18.7848788221
 31
0.0
  0
LINE
  5
1EB
330
1E3
100
AcDbEntity
  8
DIMS
100
AcDbLine
 10
10.9689391154
 20
18.7848788221
 30
0.0
 11
11.0291243014
 21
18.7848788221
 31
0.0
  0
LINE
  5
1EC
330
1E3
100
AcDbEntity
  8
DIMS
100
AcDbLine
 10
12.0823650309
 20
19.1886210913
 30
0.0
 11
12.1425502169
 21
19.1886210913
 31
0.0
  0
LINE
  5
1ED
330
1E3
100
AcDbEntity
  8
DIMS
100
AcDbLine
 10
12.1425502169
 20
19.1886210913
 30
0.0
 11
12.1425502169
 21
18.7848788221
 31
0.0
  0
LINE
  5
1EE
330
1E3
100
AcDbEntity
  8
DIMS
100
AcDbLine
 10
12.1425502169
 20
18.7848788221
 30
0.0
 11
12.0823650309
 21
18.7848788221
 31
0.0
  0
LINE
  5
1EF
330
1E3
100
AcDbEntity
  8
DIMS
100
AcDbLine
 10
13.6157787809
 20
20.5161666164
 30
0.0
 11
12.4376891442
 21
19.4169502387
 31
0.0
  0
LINE
  5
1F0
330
1E3
100
AcDbEntity
  8
DIMS
100
AcDbLine
 10
12.4376891442
 20
19.4169502387
 30
0.0
 11
12.1876891442
 21
19.4169502387
 31
0.0
  0
MTEXT
  5
1F1
330
1E3
100
AcDbEntity
  8
DIMS
100
AcDbMText
 10
11.0837925332
 20
19.7822019844
 30
0.0039370079
 40
0.2708333333
 41
0.0
 71
     1
 72
     1
  1
R1
  7
SLDTEXTSTYLE0
  0
MTEXT
  5
1F2
330
1E3
100
AcDbEntity
  8
DIMS
100
AcDbMText
 10
11.6219483822
 20
19.9667135045
 30
0.0039370079
 40
0.2708333333
 41
0.0
 71
     1
 72
     1
  1
1
  7
SLDTEXTSTYLE0
  0
MTEXT
  5
1F3
330
1E3
100
AcDbEntity
  8
DIMS
100
AcDbMText
 10
11.6219483822
 20
19.5979287673
 30
0.0039370079
 40
0.2708333333
 41
0.0
 71
     1
 72
     1
  1
4
  7
SLDTEXTSTYLE0
  0
MTEXT
  5
1F4
330
1E3
100
AcDbEntity
  8
DIMS
100
AcDbMText
 10
11.8993017723
 20
19.7822019844
 30
0.0039370079
 40
0.2708333333
 41
0.0
 71
     1
 72
     1
  1
"
  7
SLDTEXTSTYLE0
  0
MTEXT
  5
1F5
330
1E3
100
AcDbEntity
  8
DIMS
100
AcDbMText
 10
11.1043557873
 20
19.1340013258
 30
0.0039370079
 40
0.2708333333
 41
0.0
 71
     1
 72
     1
  1
31.75
  7
SLDTEXTSTYLE0
  0
ENDBLK
  5
1E5
330
1E3
100
AcDbEntity
  8
0
100
AcDbBlockEnd
  0
BLOCK
  5
1F8
330
1F7
100
AcDbEntity
  8
0
100
AcDbBlockBegin
  2
_D_2
 70
     0
 10
0.0
 20
0.0
 30
0.0
  3
_D_2
  1

  0
SOLID
  5
1FA
330
1F7
100
AcDbEntity
  8
DIMS
100
AcDbTrace
 10
37.2455380707
 20
21.4192616174
 30
0.0
 11
37.0604981185
 21
21.2281808709
 31
0.0
 12
37.1264895545
 22
21.1813980296
 32
0.0
 13
37.1264895545
 23
21.1813980296
 33
0.0
  0
LINE
  5
1FB
330
1F7
100
AcDbEntity
  8
DIMS
100
AcDbLine
 10
35.7918342021
 20
19.4768353817
 30
0.0
 11
36.0691875831
 21
19.4768353817
 31
0.0
  0
LINE
  5
1FC
330
1F7
100
AcDbEntity
  8
DIMS
100
AcDbLine
 10
35.0367608773
 20
19.024844654
 30
0.0
 11
34.9765756913
 21
19.024844654
 31
0.0
  0
LINE
  5
1FD
330
1F7
100
AcDbEntity
  8
DIMS
100
AcDbLine
 10
34.9765756913
 20
19.024844654
 30
0.0
 11
34.9765756913
 21
18.6211023847
 31
0.0
  0
LINE
  5
1FE
330
1F7
100
AcDbEntity
  8
DIMS
100
AcDbLine
 10
34.9765756913
 20
18.6211023847
 30
0.0
 11
35.0367608773
 21
18.6211023847
 31
0.0
  0
LINE
  5
1FF
330
1F7
100
AcDbEntity
  8
DIMS
100
AcDbLine
 10
36.2906189026
 20
19.024844654
 30
0.0
 11
36.3508040886
 21
19.024844654
 31
0.0
  0
LINE
  5
200
330
1F7
100
AcDbEntity
  8
DIMS
100
AcDbLine
 10
36.3508040886
 20
19.024844654
 30
0.0
 11
36.3508040886
 21
18.6211023847
 31
0.0
  0
LINE
  5
201
330
1F7
100
AcDbEntity
  8
DIMS
100
AcDbLine
 10
36.3508040886
 20
18.6211023847
 30
0.0
 11
36.2906189026
 21
18.6211023847
 31
0.0
  0
LINE
  5
202
330
1F7
100
AcDbEntity
  8
DIMS
100
AcDbLine
 10
30.3776270853
 20
11.7314509593
 30
0.0
 11
35.2191922645
 21
18.5609172766
 31
0.0
  0
LINE
  5
203
330
1F7
100
AcDbEntity
  8
DIMS
100
AcDbLine
 10
37.2455380707
 20
21.4192616174
 30
0.0
 11
36.1081875521
 21
19.8149256702
 31
0.0
  0
MTEXT
  5
204
330
1F7
100
AcDbEntity
  8
DIMS
100
AcDbMText
 10
35.0914291091
 20
19.618425547
 30
0.0039370079
 40
0.2708333333
 41
0.0
 71
     1
 72
     1
  1
R11
  7
SLDTEXTSTYLE0
  0
MTEXT
  5
205
330
1F7
100
AcDbEntity
  8
DIMS
100
AcDbMText
 10
35.8302022539
 20
19.8029370672
 30
0.0039370079
 40
0.2708333333
 41
0.0
 71
     1
 72
     1
  1
7
  7
SLDTEXTSTYLE0
  0
MTEXT
  5
206
330
1F7
100
AcDbEntity
  8
DIMS
100
AcDbMText
 10
35.8302022539
 20
19.4341523299
 30
0.0039370079
 40
0.2708333333
 41
0.0
 71
     1
 72
     1
  1
8
  7
SLDTEXTSTYLE0
  0
MTEXT
  5
207
330
1F7
100
AcDbEntity
  8
DIMS
100
AcDbMText
 10
36.1075556441
 20
19.618425547
 30
0.0039370079
 40
0.2708333333
 41
0.0
 71
     1
 72
     1
  1
"
  7
SLDTEXTSTYLE0
  0
MTEXT
  5
208
330
1F7
100
AcDbEntity
  8
DIMS
100
AcDbMText
 10
35.1119923632
 20
18.9702248884
 30
0.0039370079
 40
0.2708333333
 41
0.0
 71
     1
 72
     1
  1
301.63
  7
SLDTEXTSTYLE0
  0
ENDBLK
  5
1F9
330
1F7
100
AcDbEntity
  8
0
100
AcDbBlockEnd
  0
BLOCK
  5
20B
330
20A
100
AcDbEntity
  8
0
100
AcDbBlockBegin
  2
_D_3
 70
     0
 10
0.0
 20
0.0
 30
0.0
  3
_D_3
  1

  0
SOLID
  5
20D
330
20A
100
AcDbEntity
  8
DIMS
100
AcDbTrace
 10
39.7897151283
 20
19.957578806
 30
0.0
 11
39.5651486596
 21
19.8150251786
 31
0.0
 12
39.6183817253
 22
19.7541175061
 32
0.0
 13
39.6183817253
 23
19.7541175061
 33
0.0
  0
LINE
  5
20E
330
20A
100
AcDbEntity
  8
DIMS
100
AcDbLine
 10
37.9052996452
 20
18.4875234028
 30
0.0
 11
38.1826530262
 21
18.4875234028
 31
0.0
  0
LINE
  5
20F
330
20A
100
AcDbEntity
  8
DIMS
100
AcDbLine
 10
37.1502263204
 20
18.0355326751
 30
0.0
 11
37.0900411344
 21
18.0355326751
 31
0.0
  0
LINE
  5
210
330
20A
100
AcDbEntity
  8
DIMS
100
AcDbLine
 10
37.0900411344
 20
18.0355326751
 30
0.0
 11
37.0900411344
 21
17.6317904058
 31
0.0
  0
LINE
  5
211
330
20A
100
AcDbEntity
  8
DIMS
100
AcDbLine
 10
37.0900411344
 20
17.6317904058
 30
0.0
 11
37.1502263204
 21
17.6317904058
 31
0.0
  0
LINE
  5
212
330
20A
100
AcDbEntity
  8
DIMS
100
AcDbLine
 10
38.4040843457
 20
18.0355326751
 30
0.0
 11
38.4642695317
 21
18.0355326751
 31
0.0
  0
LINE
  5
213
330
20A
100
AcDbEntity
  8
DIMS
100
AcDbLine
 10
38.4642695317
 20
18.0355326751
 30
0.0
 11
38.4642695317
 21
17.6317904058
 31
0.0
  0
LINE
  5
214
330
20A
100
AcDbEntity
  8
DIMS
100
AcDbLine
 10
38.4642695317
 20
17.6317904058
 30
0.0
 11
38.4040843457
 21
17.6317904058
 31
0.0
  0
LINE
  5
215
330
20A
100
AcDbEntity
  8
DIMS
100
AcDbLine
 10
30.3776270853
 20
11.7314509593
 30
0.0
 11
37.0597560095
 21
17.5716052978
 31
0.0
  0
LINE
  5
216
330
20A
100
AcDbEntity
  8
DIMS
100
AcDbLine
 10
39.7897151283
 20
19.957578806
 30
0.0
 11
38.4945546933
 21
18.8256136913
 31
0.0
  0
MTEXT
  5
217
330
20A
100
AcDbEntity
  8
DIMS
100
AcDbMText
 10
37.2048945522
 20
18.6291135681
 30
0.0039370079
 40
0.2708333333
 41
0.0
 71
     1
 72
     1
  1
R12
  7
SLDTEXTSTYLE0
  0
MTEXT
  5
218
330
20A
100
AcDbEntity
  8
DIMS
100
AcDbMText
 10
37.943667697
 20
18.8136250883
 30
0.0039370079
 40
0.2708333333
 41
0.0
 71
     1
 72
     1
  1
1
  7
SLDTEXTSTYLE0
  0
MTEXT
  5
219
330
20A
100
AcDbEntity
  8
DIMS
100
AcDbMText
 10
37.943667697
 20
18.444840351
 30
0.0039370079
 40
0.2708333333
 41
0.0
 71
     1
 72
     1
  1
2
  7
SLDTEXTSTYLE0
  0
MTEXT
  5
21A
330
20A
100
AcDbEntity
  8
DIMS
100
AcDbMText
 10
38.2210210871
 20
18.6291135681
 30
0.0039370079
 40
0.2708333333
 41
0.0
 71
     1
 72
     1
  1
"
  7
SLDTEXTSTYLE0
  0
MTEXT
  5
21B
330
20A
100
AcDbEntity
  8
DIMS
100
AcDbMText
 10
37.2254578063
 20
17.9809129095
 30
0.0039370079
 40
0.2708333333
 41
0.0
 71
     1
 72
     1
  1
317.51
  7
SLDTEXTSTYLE0
  0
ENDBLK
  5
20C
330
20A
100
AcDbEntity
  8
0
100
AcDbBlockEnd
  0
BLOCK
  5
21F
330
21E
100
AcDbEntity
  8
0
100
AcDbBlockBegin
  2
_D_4
 70
     0
 10
0.0
 20
0.0
 30
0.0
  3
_D_4
  1

  0
SOLID
  5
221
330
21E
100
AcDbEntity
  8
DIMS
100
AcDbTrace
 10
6.4282766564
 20
21.8220509593
 30
0.0
 11
6.3878306928
 21
21.5591521963
 31
0.0
 12
6.4687226199
 22
21.5591521963
 32
0.0
 13
6.4687226199
 23
21.5591521963
 33
0.0
  0
SOLID
  5
222
330
21E
100
AcDbEntity
  8
DIMS
100
AcDbTrace
 10
6.4282766564
 20
4.0720509593
 30
0.0
 11
6.4687226199
 21
4.3349497223
 31
0.0
 12
6.3878306928
 22
4.3349497223
 32
0.0
 13
6.3878306928
 23
4.3349497223
 33
0.0
  0
LINE
  5
223
330
21E
100
AcDbEntity
  8
DIMS
100
AcDbLine
 10
6.4260197299
 20
13.6083406427
 30
0.0
 11
6.7033731109
 21
13.6083406427
 31
0.0
  0
LINE
  5
224
330
21E
100
AcDbEntity
  8
DIMS
100
AcDbLine
 10
5.8013476254
 20
13.156349915
 30
0.0
 11
5.7411624394
 21
13.156349915
 31
0.0
  0
LINE
  5
225
330
21E
100
AcDbEntity
  8
DIMS
100
AcDbLine
 10
5.7411624394
 20
13.156349915
 30
0.0
 11
5.7411624394
 21
12.7526076457
 31
0.0
  0
LINE
  5
226
330
21E
100
AcDbEntity
  8
DIMS
100
AcDbLine
 10
5.7411624394
 20
12.7526076457
 30
0.0
 11
5.8013476254
 21
12.7526076457
 31
0.0
  0
LINE
  5
227
330
21E
100
AcDbEntity
  8
DIMS
100
AcDbLine
 10
7.0552056507
 20
13.156349915
 30
0.0
 11
7.1153908367
 21
13.156349915
 31
0.0
  0
LINE
  5
228
330
21E
100
AcDbEntity
  8
DIMS
100
AcDbLine
 10
7.1153908367
 20
13.156349915
 30
0.0
 11
7.1153908367
 21
12.7526076457
 31
0.0
  0
LINE
  5
229
330
21E
100
AcDbEntity
  8
DIMS
100
AcDbLine
 10
7.1153908367
 20
12.7526076457
 30
0.0
 11
7.0552056507
 21
12.7526076457
 31
0.0
  0
LINE
  5
22A
330
21E
100
AcDbEntity
  8
DIMS
100
AcDbLine
 10
6.4282766564
 20
21.8220509593
 30
0.0
 11
6.4282766564
 21
13.9464309313
 31
0.0
  0
LINE
  5
22B
330
21E
100
AcDbEntity
  8
DIMS
100
AcDbLine
 10
6.4282766564
 20
4.0720509593
 30
0.0
 11
6.4282766564
 21
12.6924225377
 31
0.0
  0
MTEXT
  5
22C
330
21E
100
AcDbEntity
  8
DIMS
100
AcDbMText
 10
5.9864171141
 20
13.749930808
 30
0.0039370079
 40
0.2708333333
 41
0.0
 71
     1
 72
     1
  1
17
  7
SLDTEXTSTYLE0
  0
MTEXT
  5
22D
330
21E
100
AcDbEntity
  8
DIMS
100
AcDbMText
 10
6.4643877817
 20
13.9344423282
 30
0.0039370079
 40
0.2708333333
 41
0.0
 71
     1
 72
     1
  1
3
  7
SLDTEXTSTYLE0
  0
MTEXT
  5
22E
330
21E
100
AcDbEntity
  8
DIMS
100
AcDbMText
 10
6.4643877817
 20
13.5656575909
 30
0.0039370079
 40
0.2708333333
 41
0.0
 71
     1
 72
     1
  1
4
  7
SLDTEXTSTYLE0
  0
MTEXT
  5
22F
330
21E
100
AcDbEntity
  8
DIMS
100
AcDbMText
 10
6.7417411352
 20
13.749930808
 30
0.0039370079
 40
0.2708333333
 41
0.0
 71
     1
 72
     1
  1
"
  7
SLDTEXTSTYLE0
  0
MTEXT
  5
230
330
21E
100
AcDbEntity
  8
DIMS
100
AcDbMText
 10
5.8765791113
 20
13.1017301494
 30
0.0039370079
 40
0.2708333333
 41
0.0
 71
     1
 72
     1
  1
450.85
  7
SLDTEXTSTYLE0
  0
ENDBLK
  5
220
330
21E
100
AcDbEntity
  8
0
100
AcDbBlockEnd
  0
BLOCK
  5
234
330
233
100
AcDbEntity
  8
0
100
AcDbBlockBegin
  2
_D_5
 70
     0
 10
0.0
 20
0.0
 30
0.0
  3
_D_5
  1

  0
SOLID
  5
236
330
233
100
AcDbEntity
  8
DIMS
100
AcDbTrace
 10
4.0395901336
 20
22.4470509593
 30
0.0
 11
3.99914417
 21
22.1841521963
 31
0.0
 12
4.0800360971
 22
22.1841521963
 32
0.0
 13
4.0800360971
 23
22.1841521963
 33
0.0
  0
SOLID
  5
237
330
233
100
AcDbEntity
  8
DIMS
100
AcDbTrace
 10
4.0395901336
 20
3.4470509593
 30
0.0
 11
4.0800360971
 21
3.7099497223
 31
0.0
 12
3.99914417
 22
3.7099497223
 32
0.0
 13
3.99914417
 23
3.7099497223
 33
0.0
  0
LINE
  5
238
330
233
100
AcDbEntity
  8
DIMS
100
AcDbLine
 10
3.4126611026
 20
11.368978911
 30
0.0
 11
3.3524759166
 21
11.368978911
 31
0.0
  0
LINE
  5
239
330
233
100
AcDbEntity
  8
DIMS
100
AcDbLine
 10
3.3524759166
 20
11.368978911
 30
0.0
 11
3.3524759166
 21
10.9652366417
 31
0.0
  0
LINE
  5
23A
330
233
100
AcDbEntity
  8
DIMS
100
AcDbLine
 10
3.3524759166
 20
10.9652366417
 30
0.0
 11
3.4126611026
 21
10.9652366417
 31
0.0
  0
LINE
  5
23B
330
233
100
AcDbEntity
  8
DIMS
100
AcDbLine
 10
4.6665191279
 20
11.368978911
 30
0.0
 11
4.7267043139
 21
11.368978911
 31
0.0
  0
LINE
  5
23C
330
233
100
AcDbEntity
  8
DIMS
100
AcDbLine
 10
4.7267043139
 20
11.368978911
 30
0.0
 11
4.7267043139
 21
10.9652366417
 31
0.0
  0
LINE
  5
23D
330
233
100
AcDbEntity
  8
DIMS
100
AcDbLine
 10
4.7267043139
 20
10.9652366417
 30
0.0
 11
4.6665191279
 21
10.9652366417
 31
0.0
  0
LINE
  5
23E
330
233
100
AcDbEntity
  8
DIMS
100
AcDbLine
 10
4.0395901336
 20
22.4470509593
 30
0.0
 11
4.0395901336
 21
11.7902751992
 31
0.0
  0
LINE
  5
23F
330
233
100
AcDbEntity
  8
DIMS
100
AcDbLine
 10
4.0395901336
 20
3.4470509593
 30
0.0
 11
4.0395901336
 21
10.9050514787
 31
0.0
  0
MTEXT
  5
240
330
233
100
AcDbEntity
  8
DIMS
100
AcDbMText
 10
3.7747753244
 20
11.7782866144
 30
0.0039370079
 40
0.2708333333
 41
0.0
 71
     1
 72
     1
  1
19"
  7
SLDTEXTSTYLE0
  0
MTEXT
  5
241
330
233
100
AcDbEntity
  8
DIMS
100
AcDbMText
 10
3.4878925885
 20
11.3143591454
 30
0.0039370079
 40
0.2708333333
 41
0.0
 71
     1
 72
     1
  1
482.60
  7
SLDTEXTSTYLE0
  0
ENDBLK
  5
235
330
233
100
AcDbEntity
  8
0
100
AcDbBlockEnd
  0
BLOCK
  5
244
330
243
100
AcDbEntity
  8
0
100
AcDbBlockBegin
  2
_D_6
 70
     0
 10
0.0
 20
0.0
 30
0.0
  3
_D_6
  1

  0
SOLID
  5
246
330
243
100
AcDbEntity
  8
DIMS
100
AcDbTrace
 10
40.8747557442
 20
15.4278807363
 30
0.0
 11
40.6118569812
 21
15.4683266999
 31
0.0
 12
40.6118569812
 22
15.3874347728
 32
0.0
 13
40.6118569812
 23
15.3874347728
 33
0.0
  0
SOLID
  5
247
330
243
100
AcDbEntity
  8
DIMS
100
AcDbTrace
 10
0.8747270853
 20
15.4278807363
 30
0.0
 11
1.1376258483
 21
15.3874347728
 31
0.0
 12
1.1376258483
 22
15.4683266999
 32
0.0
 13
1.1376258483
 23
15.4683266999
 33
0.0
  0
LINE
  5
248
330
243
100
AcDbEntity
  8
DIMS
100
AcDbLine
 10
14.0410382468
 20
15.4491963084
 30
0.0
 11
13.9808530608
 21
15.4491963084
 31
0.0
  0
LINE
  5
249
330
243
100
AcDbEntity
  8
DIMS
100
AcDbLine
 10
13.9808530608
 20
15.4491963084
 30
0.0
 11
13.9808530608
 21
15.0454540391
 31
0.0
  0
LINE
  5
24A
330
243
100
AcDbEntity
  8
DIMS
100
AcDbLine
 10
13.9808530608
 20
15.0454540391
 30
0.0
 11
14.0410382468
 21
15.0454540391
 31
0.0
  0
LINE
  5
24B
330
243
100
AcDbEntity
  8
DIMS
100
AcDbLine
 10
14.9939703285
 20
15.4491963084
 30
0.0
 11
15.0541555145
 21
15.4491963084
 31
0.0
  0
LINE
  5
24C
330
243
100
AcDbEntity
  8
DIMS
100
AcDbLine
 10
15.0541555145
 20
15.4491963084
 30
0.0
 11
15.0541555145
 21
15.0454540391
 31
0.0
  0
LINE
  5
24D
330
243
100
AcDbEntity
  8
DIMS
100
AcDbLine
 10
15.0541555145
 20
15.0454540391
 30
0.0
 11
14.9939703285
 21
15.0454540391
 31
0.0
  0
LINE
  5
24E
330
243
100
AcDbEntity
  8
DIMS
100
AcDbLine
 10
40.8747557442
 20
15.4278807363
 30
0.0
 11
15.1594747266
 21
15.4278807363
 31
0.0
  0
LINE
  5
24F
330
243
100
AcDbEntity
  8
DIMS
100
AcDbLine
 10
0.8747270853
 20
15.4278807363
 30
0.0
 11
13.8755338121
 21
15.4278807363
 31
0.0
  0
MTEXT
  5
250
330
243
100
AcDbEntity
  8
DIMS
100
AcDbMText
 10
14.2526894601
 20
15.8585040118
 30
0.0039370079
 40
0.2708333333
 41
0.0
 71
     1
 72
     1
  1
40"
  7
SLDTEXTSTYLE0
  0
MTEXT
  5
251
330
243
100
AcDbEntity
  8
DIMS
100
AcDbMText
 10
14.1162697327
 20
15.3945765428
 30
0.0039370079
 40
0.2708333333
 41
0.0
 71
     1
 72
     1
  1
1016
  7
SLDTEXTSTYLE0
  0
ENDBLK
  5
245
330
243
100
AcDbEntity
  8
0
100
AcDbBlockEnd
  0
BLOCK
  5
254
330
253
100
AcDbEntity
  8
0
100
AcDbBlockBegin
  2
_D_7
 70
     0
 10
0.0
 20
0.0
 30
0.0
  3
_D_7
  1

  0
SOLID
  5
256
330
253
100
AcDbEntity
  8
DIMS
100
AcDbTrace
 10
40.2497557442
 20
16.6717636236
 30
0.0
 11
39.9868569812
 21
16.7122095871
 31
0.0
 12
39.9868569812
 22
16.6313176601
 32
0.0
 13
39.9868569812
 23
16.6313176601
 33
0.0
  0
SOLID
  5
257
330
253
100
AcDbEntity
  8
DIMS
100
AcDbTrace
 10
1.4997270853
 20
16.6717636236
 30
0.0
 11
1.7626258483
 21
16.6313176601
 31
0.0
 12
1.7626258483
 22
16.7122095871
 32
0.0
 13
1.7626258483
 23
16.7122095871
 33
0.0
  0
LINE
  5
258
330
253
100
AcDbEntity
  8
DIMS
100
AcDbLine
 10
8.9499528728
 20
16.9606775319
 30
0.0
 11
9.2273062538
 21
16.9606775319
 31
0.0
  0
LINE
  5
259
330
253
100
AcDbEntity
  8
DIMS
100
AcDbLine
 10
8.3252807682
 20
16.5086868041
 30
0.0
 11
8.2650955822
 21
16.5086868041
 31
0.0
  0
LINE
  5
25A
330
253
100
AcDbEntity
  8
DIMS
100
AcDbLine
 10
8.2650955822
 20
16.5086868041
 30
0.0
 11
8.2650955822
 21
16.1049445349
 31
0.0
  0
LINE
  5
25B
330
253
100
AcDbEntity
  8
DIMS
100
AcDbLine
 10
8.2650955822
 20
16.1049445349
 30
0.0
 11
8.3252807682
 21
16.1049445349
 31
0.0
  0
LINE
  5
25C
330
253
100
AcDbEntity
  8
DIMS
100
AcDbLine
 10
9.5791387935
 20
16.5086868041
 30
0.0
 11
9.6393239795
 21
16.5086868041
 31
0.0
  0
LINE
  5
25D
330
253
100
AcDbEntity
  8
DIMS
100
AcDbLine
 10
9.6393239795
 20
16.5086868041
 30
0.0
 11
9.6393239795
 21
16.1049445349
 31
0.0
  0
LINE
  5
25E
330
253
100
AcDbEntity
  8
DIMS
100
AcDbLine
 10
9.6393239795
 20
16.1049445349
 30
0.0
 11
9.5791387935
 21
16.1049445349
 31
0.0
  0
LINE
  5
25F
330
253
100
AcDbEntity
  8
DIMS
100
AcDbLine
 10
40.2497557442
 20
15.8069509593
 30
0.0
 11
40.2497557442
 21
16.7967636236
 31
0.0
  0
LINE
  5
260
330
253
100
AcDbEntity
  8
DIMS
100
AcDbLine
 10
40.2497557442
 20
16.6717636236
 30
0.0
 11
9.744643265
 21
16.6717636236
 31
0.0
  0
LINE
  5
261
330
253
100
AcDbEntity
  8
DIMS
100
AcDbLine
 10
1.4997270853
 20
16.6717636236
 30
0.0
 11
8.1597763334
 21
16.6717636236
 31
0.0
  0
MTEXT
  5
262
330
253
100
AcDbEntity
  8
DIMS
100
AcDbMText
 10
8.5103502569
 20
17.1022676972
 30
0.0039370079
 40
0.2708333333
 41
0.0
 71
     1
 72
     1
  1
38
  7
SLDTEXTSTYLE0
  0
MTEXT
  5
263
330
253
100
AcDbEntity
  8
DIMS
100
AcDbMText
 10
8.9883209246
 20
17.2867792173
 30
0.0039370079
 40
0.2708333333
 41
0.0
 71
     1
 72
     1
  1
3
  7
SLDTEXTSTYLE0
  0
MTEXT
  5
264
330
253
100
AcDbEntity
  8
DIMS
100
AcDbMText
 10
8.9883209246
 20
16.9179944801
 30
0.0039370079
 40
0.2708333333
 41
0.0
 71
     1
 72
     1
  1
4
  7
SLDTEXTSTYLE0
  0
MTEXT
  5
265
330
253
100
AcDbEntity
  8
DIMS
100
AcDbMText
 10
9.265674278
 20
17.1022676972
 30
0.0039370079
 40
0.2708333333
 41
0.0
 71
     1
 72
     1
  1
"
  7
SLDTEXTSTYLE0
  0
MTEXT
  5
266
330
253
100
AcDbEntity
  8
DIMS
100
AcDbMText
 10
8.4005122541
 20
16.4540670386
 30
0.0039370079
 40
0.2708333333
 41
0.0
 71
     1
 72
     1
  1
984.25
  7
SLDTEXTSTYLE0
  0
ENDBLK
  5
255
330
253
100
AcDbEntity
  8
0
100
AcDbBlockEnd
  0
BLOCK
  5
269
330
268
100
AcDbEntity
  8
0
100
AcDbBlockBegin
  2
_D_8
 70
     0
 10
0.0
 20
0.0
 30
0.0
  3
_D_8
  1

  0
SOLID
  5
26B
330
268
100
AcDbEntity
  8
DIMS
100
AcDbTrace
 10
15.5309770853
 20
24.0631926916
 30
0.0
 11
15.2680783223
 21
24.1036386551
 31
0.0
 12
15.2680783223
 22
24.0227467281
 32
0.0
 13
15.2680783223
 23
24.0227467281
 33
0.0
  0
SOLID
  5
26C
330
268
100
AcDbEntity
  8
DIMS
100
AcDbTrace
 10
0.8747270853
 20
24.0631926916
 30
0.0
 11
1.1376258483
 21
24.0227467281
 31
0.0
 12
1.1376258483
 22
24.1036386551
 32
0.0
 13
1.1376258483
 23
24.1036386551
 33
0.0
  0
LINE
  5
26D
330
268
100
AcDbEntity
  8
DIMS
100
AcDbLine
 10
7.7026950652
 20
24.3521065999
 30
0.0
 11
8.180665742
 21
24.3521065999
 31
0.0
  0
LINE
  5
26E
330
268
100
AcDbEntity
  8
DIMS
100
AcDbLine
 10
7.1783316086
 20
23.9001158721
 30
0.0
 11
7.1181464226
 21
23.9001158721
 31
0.0
  0
LINE
  5
26F
330
268
100
AcDbEntity
  8
DIMS
100
AcDbLine
 10
7.1181464226
 20
23.9001158721
 30
0.0
 11
7.1181464226
 21
23.4963736029
 31
0.0
  0
LINE
  5
270
330
268
100
AcDbEntity
  8
DIMS
100
AcDbLine
 10
7.1181464226
 20
23.4963736029
 30
0.0
 11
7.1783316086
 21
23.4963736029
 31
0.0
  0
LINE
  5
271
330
268
100
AcDbEntity
  8
DIMS
100
AcDbLine
 10
8.4321896339
 20
23.9001158721
 30
0.0
 11
8.4923748199
 21
23.9001158721
 31
0.0
  0
LINE
  5
272
330
268
100
AcDbEntity
  8
DIMS
100
AcDbLine
 10
8.4923748199
 20
23.9001158721
 30
0.0
 11
8.4923748199
 21
23.4963736029
 31
0.0
  0
LINE
  5
273
330
268
100
AcDbEntity
  8
DIMS
100
AcDbLine
 10
8.4923748199
 20
23.4963736029
 30
0.0
 11
8.4321896339
 21
23.4963736029
 31
0.0
  0
LINE
  5
274
330
268
100
AcDbEntity
  8
DIMS
100
AcDbLine
 10
15.5309770853
 20
21.7470509593
 30
0.0
 11
15.5309770853
 21
24.1881926916
 31
0.0
  0
LINE
  5
275
330
268
100
AcDbEntity
  8
DIMS
100
AcDbLine
 10
0.8747270853
 20
20.2470509593
 30
0.0
 11
0.8747270853
 21
24.1881926916
 31
0.0
  0
LINE
  5
276
330
268
100
AcDbEntity
  8
DIMS
100
AcDbLine
 10
15.5309770853
 20
24.0631926916
 30
0.0
 11
8.5976941053
 21
24.0631926916
 31
0.0
  0
LINE
  5
277
330
268
100
AcDbEntity
  8
DIMS
100
AcDbLine
 10
0.8747270853
 20
24.0631926916
 30
0.0
 11
7.0128271738
 21
24.0631926916
 31
0.0
  0
MTEXT
  5
278
330
268
100
AcDbEntity
  8
DIMS
100
AcDbMText
 10
7.2630924494
 20
24.4936967652
 30
0.0039370079
 40
0.2708333333
 41
0.0
 71
     1
 72
     1
  1
14
  7
SLDTEXTSTYLE0
  0
MTEXT
  5
279
330
268
100
AcDbEntity
  8
DIMS
100
AcDbMText
 10
7.7410631262
 20
24.6782082853
 30
0.0039370079
 40
0.2708333333
 41
0.0
 71
     1
 72
     1
  1
11
  7
SLDTEXTSTYLE0
  0
MTEXT
  5
27A
330
268
100
AcDbEntity
  8
DIMS
100
AcDbMText
 10
7.7410631262
 20
24.3094235481
 30
0.0039370079
 40
0.2708333333
 41
0.0
 71
     1
 72
     1
  1
16
  7
SLDTEXTSTYLE0
  0
MTEXT
  5
27B
330
268
100
AcDbEntity
  8
DIMS
100
AcDbMText
 10
8.2190337663
 20
24.4936967652
 30
0.0039370079
 40
0.2708333333
 41
0.0
 71
     1
 72
     1
  1
"
  7
SLDTEXTSTYLE0
  0
MTEXT
  5
27C
330
268
100
AcDbEntity
  8
DIMS
100
AcDbMText
 10
7.2535630945
 20
23.8454961066
 30
0.0039370079
 40
0.2708333333
 41
0.0
 71
     1
 72
     1
  1
372.27
  7
SLDTEXTSTYLE0
  0
ENDBLK
  5
26A
330
268
100
AcDbEntity
  8
0
100
AcDbBlockEnd
  0
BLOCK
  5
27F
330
27E
100
AcDbEntity
  8
0
100
AcDbBlockBegin
  2
_D_9
 70
     0
 10
0.0
 20
0.0
 30
0.0
  3
_D_9
  1

  0
SOLID
  5
281
330
27E
100
AcDbEntity
  8
DIMS
100
AcDbTrace
 10
15.5309770853
 20
24.0631926916
 30
0.0
 11
15.7938758483
 21
24.0227467281
 31
0.0
 12
15.7938758483
 22
24.1036386551
 32
0.0
 13
15.7938758483
 23
24.1036386551
 33
0.0
  0
SOLID
  5
282
330
27E
100
AcDbEntity
  8
DIMS
100
AcDbTrace
 10
19.5309770853
 20
24.0631926916
 30
0.0
 11
19.2680783223
 21
24.1036386551
 31
0.0
 12
19.2680783223
 22
24.0227467281
 32
0.0
 13
19.2680783223
 23
24.0227467281
 33
0.0
  0
LINE
  5
283
330
27E
100
AcDbEntity
  8
DIMS
100
AcDbLine
 10
16.7878311231
 20
24.0845082637
 30
0.0
 11
16.7276459371
 21
24.0845082637
 31
0.0
  0
LINE
  5
284
330
27E
100
AcDbEntity
  8
DIMS
100
AcDbLine
 10
16.7276459371
 20
24.0845082637
 30
0.0
 11
16.7276459371
 21
23.6807659944
 31
0.0
  0
LINE
  5
285
330
27E
100
AcDbEntity
  8
DIMS
100
AcDbLine
 10
16.7276459371
 20
23.6807659944
 30
0.0
 11
16.7878311231
 21
23.6807659944
 31
0.0
  0
LINE
  5
286
330
27E
100
AcDbEntity
  8
DIMS
100
AcDbLine
 10
18.0416891485
 20
24.0845082637
 30
0.0
 11
18.1018743344
 21
24.0845082637
 31
0.0
  0
LINE
  5
287
330
27E
100
AcDbEntity
  8
DIMS
100
AcDbLine
 10
18.1018743344
 20
24.0845082637
 30
0.0
 11
18.1018743344
 21
23.6807659944
 31
0.0
  0
LINE
  5
288
330
27E
100
AcDbEntity
  8
DIMS
100
AcDbLine
 10
18.1018743344
 20
23.6807659944
 30
0.0
 11
18.0416891485
 21
23.6807659944
 31
0.0
  0
LINE
  5
289
330
27E
100
AcDbEntity
  8
DIMS
100
AcDbLine
 10
15.5309770853
 20
21.7470509593
 30
0.0
 11
15.5309770853
 21
24.1881926916
 31
0.0
  0
LINE
  5
28A
330
27E
100
AcDbEntity
  8
DIMS
100
AcDbLine
 10
19.5309770853
 20
21.7470509593
 30
0.0
 11
19.5309770853
 21
24.1881926916
 31
0.0
  0
LINE
  5
28B
330
27E
100
AcDbEntity
  8
DIMS
100
AcDbLine
 10
15.5309770853
 20
24.0631926916
 30
0.0
 11
16.6223266884
 21
24.0631926916
 31
0.0
  0
LINE
  5
28C
330
27E
100
AcDbEntity
  8
DIMS
100
AcDbLine
 10
19.5309770853
 20
24.0631926916
 30
0.0
 11
18.2071936199
 21
24.0631926916
 31
0.0
  0
MTEXT
  5
28D
330
27E
100
AcDbEntity
  8
DIMS
100
AcDbMText
 10
17.2502539745
 20
24.4938159671
 30
0.0039370079
 40
0.2708333333
 41
0.0
 71
     1
 72
     1
  1
4"
  7
SLDTEXTSTYLE0
  0
MTEXT
  5
28E
330
27E
100
AcDbEntity
  8
DIMS
100
AcDbMText
 10
16.8630626091
 20
24.0298884981
 30
0.0039370079
 40
0.2708333333
 41
0.0
 71
     1
 72
     1
  1
101.60
  7
SLDTEXTSTYLE0
  0
ENDBLK
  5
280
330
27E
100
AcDbEntity
  8
0
100
AcDbBlockEnd
  0
BLOCK
  5
291
330
290
100
AcDbEntity
  8
0
100
AcDbBlockBegin
  2
_D_10
 70
     0
 10
0.0
 20
0.0
 30
0.0
  3
_D_10
  1

  0
SOLID
  5
293
330
290
100
AcDbEntity
  8
DIMS
100
AcDbTrace
 10
19.5309770853
 20
24.0631926916
 30
0.0
 11
19.7938758483
 21
24.0227467281
 31
0.0
 12
19.7938758483
 22
24.1036386551
 32
0.0
 13
19.7938758483
 23
24.1036386551
 33
0.0
  0
SOLID
  5
294
330
290
100
AcDbEntity
  8
DIMS
100
AcDbTrace
 10
23.5309770853
 20
24.0631926916
 30
0.0
 11
23.2680783223
 21
24.1036386551
 31
0.0
 12
23.2680783223
 22
24.0227467281
 32
0.0
 13
23.2680783223
 23
24.0227467281
 33
0.0
  0
LINE
  5
295
330
290
100
AcDbEntity
  8
DIMS
100
AcDbLine
 10
21.1795170246
 20
24.0845082637
 30
0.0
 11
21.1193318386
 21
24.0845082637
 31
0.0
  0
LINE
  5
296
330
290
100
AcDbEntity
  8
DIMS
100
AcDbLine
 10
21.1193318386
 20
24.0845082637
 30
0.0
 11
21.1193318386
 21
23.6807659944
 31
0.0
  0
LINE
  5
297
330
290
100
AcDbEntity
  8
DIMS
100
AcDbLine
 10
21.1193318386
 20
23.6807659944
 30
0.0
 11
21.1795170246
 21
23.6807659944
 31
0.0
  0
LINE
  5
298
330
290
100
AcDbEntity
  8
DIMS
100
AcDbLine
 10
22.4333750499
 20
24.0845082637
 30
0.0
 11
22.4935602359
 21
24.0845082637
 31
0.0
  0
LINE
  5
299
330
290
100
AcDbEntity
  8
DIMS
100
AcDbLine
 10
22.4935602359
 20
24.0845082637
 30
0.0
 11
22.4935602359
 21
23.6807659944
 31
0.0
  0
LINE
  5
29A
330
290
100
AcDbEntity
  8
DIMS
100
AcDbLine
 10
22.4935602359
 20
23.6807659944
 30
0.0
 11
22.4333750499
 21
23.6807659944
 31
0.0
  0
LINE
  5
29B
330
290
100
AcDbEntity
  8
DIMS
100
AcDbLine
 10
19.5309770853
 20
21.7470509593
 30
0.0
 11
19.5309770853
 21
24.1881926916
 31
0.0
  0
LINE
  5
29C
330
290
100
AcDbEntity
  8
DIMS
100
AcDbLine
 10
23.5309770853
 20
21.7470509593
 30
0.0
 11
23.5309770853
 21
24.1881926916
 31
0.0
  0
LINE
  5
29D
330
290
100
AcDbEntity
  8
DIMS
100
AcDbLine
 10
19.5309770853
 20
24.0631926916
 30
0.0
 11
21.0140125898
 21
24.0631926916
 31
0.0
  0
LINE
  5
29E
330
290
100
AcDbEntity
  8
DIMS
100
AcDbLine
 10
23.5309770853
 20
24.0631926916
 30
0.0
 11
22.5988795213
 21
24.0631926916
 31
0.0
  0
MTEXT
  5
29F
330
290
100
AcDbEntity
  8
DIMS
100
AcDbMText
 10
21.6419398759
 20
24.4938159671
 30
0.0039370079
 40
0.2708333333
 41
0.0
 71
     1
 72
     1
  1
4"
  7
SLDTEXTSTYLE0
  0
MTEXT
  5
2A0
330
290
100
AcDbEntity
  8
DIMS
100
AcDbMText
 10
21.2547485105
 20
24.0298884981
 30
0.0039370079
 40
0.2708333333
 41
0.0
 71
     1
 72
     1
  1
101.60
  7
SLDTEXTSTYLE0
  0
ENDBLK
  5
292
330
290
100
AcDbEntity
  8
0
100
AcDbBlockEnd
  0
BLOCK
  5
2A4
330
2A3
100
AcDbEntity
  8
0
100
AcDbBlockBegin
  2
_D_11
 70
     0
 10
0.0
 20
0.0
 30
0.0
  3
_D_11
  1

  0
SOLID
  5
2A6
330
2A3
100
AcDbEntity
  8
DIMS
100
AcDbTrace
 10
17.6240938887
 20
21.6970509593
 30
0.0
 11
17.6645398523
 21
21.9599497223
 31
0.0
 12
17.5836479252
 22
21.9599497223
 32
0.0
 13
17.5836479252
 23
21.9599497223
 33
0.0
  0
SOLID
  5
2A7
330
2A3
100
AcDbEntity
  8
DIMS
100
AcDbTrace
 10
17.6240938887
 20
20.1189259593
 30
0.0
 11
17.5836479252
 21
19.8560271963
 31
0.0
 12
17.6645398523
 22
19.8560271963
 32
0.0
 13
17.6645398523
 23
19.8560271963
 33
0.0
  0
LINE
  5
2A8
330
2A3
100
AcDbEntity
  8
DIMS
100
AcDbLine
 10
17.4212196482
 20
21.1809264398
 30
0.0
 11
17.899190325
 21
21.1809264398
 31
0.0
  0
LINE
  5
2A9
330
2A3
100
AcDbEntity
  8
DIMS
100
AcDbLine
 10
17.0974735056
 20
20.7289357121
 30
0.0
 11
17.0372883197
 21
20.7289357121
 31
0.0
  0
LINE
  5
2AA
330
2A3
100
AcDbEntity
  8
DIMS
100
AcDbLine
 10
17.0372883197
 20
20.7289357121
 30
0.0
 11
17.0372883197
 21
20.3251934428
 31
0.0
  0
LINE
  5
2AB
330
2A3
100
AcDbEntity
  8
DIMS
100
AcDbLine
 10
17.0372883197
 20
20.3251934428
 30
0.0
 11
17.0974735056
 21
20.3251934428
 31
0.0
  0
LINE
  5
2AC
330
2A3
100
AcDbEntity
  8
DIMS
100
AcDbLine
 10
18.1507142352
 20
20.7289357121
 30
0.0
 11
18.2108994212
 21
20.7289357121
 31
0.0
  0
LINE
  5
2AD
330
2A3
100
AcDbEntity
  8
DIMS
100
AcDbLine
 10
18.2108994212
 20
20.7289357121
 30
0.0
 11
18.2108994212
 21
20.3251934428
 31
0.0
  0
LINE
  5
2AE
330
2A3
100
AcDbEntity
  8
DIMS
100
AcDbLine
 10
18.2108994212
 20
20.3251934428
 30
0.0
 11
18.1507142352
 21
20.3251934428
 31
0.0
  0
LINE
  5
2AF
330
2A3
100
AcDbEntity
  8
DIMS
100
AcDbLine
 10
19.4809770853
 20
21.6970509593
 30
0.0
 11
17.4990938887
 21
21.6970509593
 31
0.0
  0
LINE
  5
2B0
330
2A3
100
AcDbEntity
  8
DIMS
100
AcDbLine
 10
17.6240938887
 20
21.6970509593
 30
0.0
 11
17.6240938887
 21
22.2026255036
 31
0.0
  0
LINE
  5
2B1
330
2A3
100
AcDbEntity
  8
DIMS
100
AcDbLine
 10
17.6240938887
 20
20.1189259593
 30
0.0
 11
17.6240938887
 21
19.613351415
 31
0.0
  0
MTEXT
  5
2B2
330
2A3
100
AcDbEntity
  8
DIMS
100
AcDbMText
 10
17.1822343098
 20
21.3225166051
 30
0.0039370079
 40
0.2708333333
 41
0.0
 71
     1
 72
     1
  1
1
  7
SLDTEXTSTYLE0
  0
MTEXT
  5
2B3
330
2A3
100
AcDbEntity
  8
DIMS
100
AcDbMText
 10
17.5598963479
 20
21.5070281253
 30
0.0039370079
 40
0.2708333333
 41
0.0
 71
     1
 72
     1
  1
9
  7
SLDTEXTSTYLE0
  0
MTEXT
  5
2B4
330
2A3
100
AcDbEntity
  8
DIMS
100
AcDbMText
 10
17.4595877091
 20
21.138243388
 30
0.0039370079
 40
0.2708333333
 41
0.0
 71
     1
 72
     1
  1
16
  7
SLDTEXTSTYLE0
  0
MTEXT
  5
2B5
330
2A3
100
AcDbEntity
  8
DIMS
100
AcDbMText
 10
17.9375584042
 20
21.3225166051
 30
0.0039370079
 40
0.2708333333
 41
0.0
 71
     1
 72
     1
  1
"
  7
SLDTEXTSTYLE0
  0
MTEXT
  5
2B6
330
2A3
100
AcDbEntity
  8
DIMS
100
AcDbMText
 10
17.1727049916
 20
20.6743159465
 30
0.0039370079
 40
0.2708333333
 41
0.0
 71
     1
 72
     1
  1
40.08
  7
SLDTEXTSTYLE0
  0
ENDBLK
  5
2A5
330
2A3
100
AcDbEntity
  8
0
100
AcDbBlockEnd
  0
BLOCK
  5
2BA
330
2B9
100
AcDbEntity
  8
0
100
AcDbBlockBegin
  2
_D_12
 70
     0
 10
0.0
 20
0.0
 30
0.0
  3
_D_12
  1

  0
SOLID
  5
2BC
330
2B9
100
AcDbEntity
  8
DIMS
100
AcDbTrace
 10
15.0224129564
 20
22.2482882284
 30
0.0
 11
14.8738722125
 21
22.4689401782
 31
0.0
 12
14.8144180192
 22
22.414088535
 32
0.0
 13
14.8144180192
 23
22.414088535
 33
0.0
  0
LINE
  5
2BD
330
2B9
100
AcDbEntity
  8
DIMS
100
AcDbLine
 10
13.6501319284
 20
23.1001277589
 30
0.0
 11
13.9274853094
 21
23.1001277589
 31
0.0
  0
LINE
  5
2BE
330
2B9
100
AcDbEntity
  8
DIMS
100
AcDbLine
 10
13.0342995417
 20
22.6481370312
 30
0.0
 11
12.9741143557
 21
22.6481370312
 31
0.0
  0
LINE
  5
2BF
330
2B9
100
AcDbEntity
  8
DIMS
100
AcDbLine
 10
12.9741143557
 20
22.6481370312
 30
0.0
 11
12.9741143557
 21
22.2443947619
 31
0.0
  0
LINE
  5
2C0
330
2B9
100
AcDbEntity
  8
DIMS
100
AcDbLine
 10
12.9741143557
 20
22.2443947619
 30
0.0
 11
13.0342995417
 21
22.2443947619
 31
0.0
  0
LINE
  5
2C1
330
2B9
100
AcDbEntity
  8
DIMS
100
AcDbLine
 10
14.0875402713
 20
22.6481370312
 30
0.0
 11
14.1477254573
 21
22.6481370312
 31
0.0
  0
LINE
  5
2C2
330
2B9
100
AcDbEntity
  8
DIMS
100
AcDbLine
 10
14.1477254573
 20
22.6481370312
 30
0.0
 11
14.1477254573
 21
22.2443947619
 31
0.0
  0
LINE
  5
2C3
330
2B9
100
AcDbEntity
  8
DIMS
100
AcDbLine
 10
14.1477254573
 20
22.2443947619
 30
0.0
 11
14.0875402713
 21
22.2443947619
 31
0.0
  0
LINE
  5
2C4
330
2B9
100
AcDbEntity
  8
DIMS
100
AcDbLine
 10
15.0224129564
 20
22.2482882284
 30
0.0
 11
14.4428643846
 21
22.8764661785
 31
0.0
  0
LINE
  5
2C5
330
2B9
100
AcDbEntity
  8
DIMS
100
AcDbLine
 10
14.4428643846
 20
22.8764661785
 30
0.0
 11
14.1928643846
 21
22.8764661785
 31
0.0
  0
MTEXT
  5
2C6
330
2B9
100
AcDbEntity
  8
DIMS
100
AcDbMText
 10
13.0275914159
 20
23.2417179242
 30
0.0039370079
 40
0.2708333333
 41
0.0
 71
     1
 72
     1
  1
%%c
  7
SLDTEXTSTYLE0
  0
MTEXT
  5
2C7
330
2B9
100
AcDbEntity
  8
DIMS
100
AcDbMText
 10
13.4111465717
 20
23.2417179242
 30
0.0039370079
 40
0.2708333333
 41
0.0
 71
     1
 72
     1
  1
1
  7
SLDTEXTSTYLE0
  0
MTEXT
  5
2C8
330
2B9
100
AcDbEntity
  8
DIMS
100
AcDbMText
 10
13.6884999802
 20
23.4262294444
 30
0.0039370079
 40
0.2708333333
 41
0.0
 71
     1
 72
     1
  1
1
  7
SLDTEXTSTYLE0
  0
MTEXT
  5
2C9
330
2B9
100
AcDbEntity
  8
DIMS
100
AcDbMText
 10
13.6884999802
 20
23.0574447071
 30
0.0039370079
 40
0.2708333333
 41
0.0
 71
     1
 72
     1
  1
2
  7
SLDTEXTSTYLE0
  0
MTEXT
  5
2CA
330
2B9
100
AcDbEntity
  8
DIMS
100
AcDbMText
 10
13.9658533703
 20
23.2417179242
 30
0.0039370079
 40
0.2708333333
 41
0.0
 71
     1
 72
     1
  1
"
  7
SLDTEXTSTYLE0
  0
MTEXT
  5
2CB
330
2B9
100
AcDbEntity
  8
DIMS
100
AcDbMText
 10
13.1095310276
 20
22.5935172656
 30
0.0039370079
 40
0.2708333333
 41
0.0
 71
     1
 72
     1
  1
38.10
  7
SLDTEXTSTYLE0
  0
ENDBLK
  5
2BB
330
2B9
100
AcDbEntity
  8
0
100
AcDbBlockEnd
  0
BLOCK
  5
2CE
330
2CD
100
AcDbEntity
  8
0
100
AcDbBlockBegin
  2
_D_13
 70
     0
 10
0.0
 20
0.0
 30
0.0
  3
_D_13
  1

  0
SOLID
  5
2D0
330
2CD
100
AcDbEntity
  8
DIMS
100
AcDbTrace
 10
23.5309770853
 20
24.0631926916
 30
0.0
 11
23.7938758483
 21
24.0227467281
 31
0.0
 12
23.7938758483
 22
24.1036386551
 32
0.0
 13
23.7938758483
 23
24.1036386551
 33
0.0
  0
SOLID
  5
2D1
330
2CD
100
AcDbEntity
  8
DIMS
100
AcDbTrace
 10
40.2184770853
 20
24.0631926916
 30
0.0
 11
39.9555783223
 21
24.1036386551
 31
0.0
 12
39.9555783223
 22
24.0227467281
 32
0.0
 13
39.9555783223
 23
24.0227467281
 33
0.0
  0
LINE
  5
2D2
330
2CD
100
AcDbEntity
  8
DIMS
100
AcDbLine
 10
32.7384235611
 20
24.3521065999
 30
0.0
 11
33.2163942379
 21
24.3521065999
 31
0.0
  0
LINE
  5
2D3
330
2CD
100
AcDbEntity
  8
DIMS
100
AcDbLine
 10
32.2140601044
 20
23.9001158721
 30
0.0
 11
32.1538749184
 21
23.9001158721
 31
0.0
  0
LINE
  5
2D4
330
2CD
100
AcDbEntity
  8
DIMS
100
AcDbLine
 10
32.1538749184
 20
23.9001158721
 30
0.0
 11
32.1538749184
 21
23.4963736029
 31
0.0
  0
LINE
  5
2D5
330
2CD
100
AcDbEntity
  8
DIMS
100
AcDbLine
 10
32.1538749184
 20
23.4963736029
 30
0.0
 11
32.2140601044
 21
23.4963736029
 31
0.0
  0
LINE
  5
2D6
330
2CD
100
AcDbEntity
  8
DIMS
100
AcDbLine
 10
33.4679181297
 20
23.9001158721
 30
0.0
 11
33.5281033157
 21
23.9001158721
 31
0.0
  0
LINE
  5
2D7
330
2CD
100
AcDbEntity
  8
DIMS
100
AcDbLine
 10
33.5281033157
 20
23.9001158721
 30
0.0
 11
33.5281033157
 21
23.4963736029
 31
0.0
  0
LINE
  5
2D8
330
2CD
100
AcDbEntity
  8
DIMS
100
AcDbLine
 10
33.5281033157
 20
23.4963736029
 30
0.0
 11
33.4679181297
 21
23.4963736029
 31
0.0
  0
LINE
  5
2D9
330
2CD
100
AcDbEntity
  8
DIMS
100
AcDbLine
 10
23.5309770853
 20
21.7470509593
 30
0.0
 11
23.5309770853
 21
24.1881926916
 31
0.0
  0
LINE
  5
2DA
330
2CD
100
AcDbEntity
  8
DIMS
100
AcDbLine
 10
40.2184770853
 20
21.9970509593
 30
0.0
 11
40.2184770853
 21
24.1881926916
 31
0.0
  0
LINE
  5
2DB
330
2CD
100
AcDbEntity
  8
DIMS
100
AcDbLine
 10
23.5309770853
 20
24.0631926916
 30
0.0
 11
32.0485556697
 21
24.0631926916
 31
0.0
  0
LINE
  5
2DC
330
2CD
100
AcDbEntity
  8
DIMS
100
AcDbLine
 10
40.2184770853
 20
24.0631926916
 30
0.0
 11
33.6334226012
 21
24.0631926916
 31
0.0
  0
MTEXT
  5
2DD
330
2CD
100
AcDbEntity
  8
DIMS
100
AcDbMText
 10
32.2988209453
 20
24.4936967652
 30
0.0039370079
 40
0.2708333333
 41
0.0
 71
     1
 72
     1
  1
16
  7
SLDTEXTSTYLE0
  0
MTEXT
  5
2DE
330
2CD
100
AcDbEntity
  8
DIMS
100
AcDbMText
 10
32.776791622
 20
24.6782082853
 30
0.0039370079
 40
0.2708333333
 41
0.0
 71
     1
 72
     1
  1
11
  7
SLDTEXTSTYLE0
  0
MTEXT
  5
2DF
330
2CD
100
AcDbEntity
  8
DIMS
100
AcDbMText
 10
32.776791622
 20
24.3094235481
 30
0.0039370079
 40
0.2708333333
 41
0.0
 71
     1
 72
     1
  1
16
  7
SLDTEXTSTYLE0
  0
MTEXT
  5
2E0
330
2CD
100
AcDbEntity
  8
DIMS
100
AcDbMText
 10
33.2547622621
 20
24.4936967652
 30
0.0039370079
 40
0.2708333333
 41
0.0
 71
     1
 72
     1
  1
"
  7
SLDTEXTSTYLE0
  0
MTEXT
  5
2E1
330
2CD
100
AcDbEntity
  8
DIMS
100
AcDbMText
 10
32.2892915903
 20
23.8454961066
 30
0.0039370079
 40
0.2708333333
 41
0.0
 71
     1
 72
     1
  1
423.86
  7
SLDTEXTSTYLE0
  0
ENDBLK
  5
2CF
330
2CD
100
AcDbEntity
  8
0
100
AcDbBlockEnd
  0
BLOCK
  5
2E5
330
2E4
100
AcDbEntity
  8
0
100
AcDbBlockBegin
  2
_D_14
 70
     0
 10
0.0
 20
0.0
 30
0.0
  3
_D_14
  1

  0
SOLID
  5
2E7
330
2E4
100
AcDbEntity
  8
DIMS
100
AcDbTrace
 10
40.1394414303
 20
4.149165047
 30
0.0
 11
39.9844518714
 21
4.3653359798
 31
0.0
 12
39.9266427845
 22
4.3087531791
 32
0.0
 13
39.9266427845
 23
4.3087531791
 33
0.0
  0
LINE
  5
2E8
330
2E4
100
AcDbEntity
  8
DIMS
100
AcDbLine
 10
37.3104902111
 20
6.3904686453
 30
0.0
 11
37.5878435921
 21
6.3904686453
 31
0.0
  0
LINE
  5
2E9
330
2E4
100
AcDbEntity
  8
DIMS
100
AcDbLine
 10
36.756034182
 20
5.9384779175
 30
0.0
 11
36.695848996
 21
5.9384779175
 31
0.0
  0
LINE
  5
2EA
330
2E4
100
AcDbEntity
  8
DIMS
100
AcDbLine
 10
36.695848996
 20
5.9384779175
 30
0.0
 11
36.695848996
 21
5.5347356483
 31
0.0
  0
LINE
  5
2EB
330
2E4
100
AcDbEntity
  8
DIMS
100
AcDbLine
 10
36.695848996
 20
5.5347356483
 30
0.0
 11
36.756034182
 21
5.5347356483
 31
0.0
  0
LINE
  5
2EC
330
2E4
100
AcDbEntity
  8
DIMS
100
AcDbLine
 10
37.8092749116
 20
5.9384779175
 30
0.0
 11
37.8694600976
 21
5.9384779175
 31
0.0
  0
LINE
  5
2ED
330
2E4
100
AcDbEntity
  8
DIMS
100
AcDbLine
 10
37.8694600976
 20
5.9384779175
 30
0.0
 11
37.8694600976
 21
5.5347356483
 31
0.0
  0
LINE
  5
2EE
330
2E4
100
AcDbEntity
  8
DIMS
100
AcDbLine
 10
37.8694600976
 20
5.5347356483
 30
0.0
 11
37.8092749116
 21
5.5347356483
 31
0.0
  0
LINE
  5
2EF
330
2E4
100
AcDbEntity
  8
DIMS
100
AcDbLine
 10
40.1394414303
 20
4.149165047
 30
0.0
 11
38.1645990249
 21
6.1668070648
 31
0.0
  0
LINE
  5
2F0
330
2E4
100
AcDbEntity
  8
DIMS
100
AcDbLine
 10
38.1645990249
 20
6.1668070648
 30
0.0
 11
37.9145990249
 21
6.1668070648
 31
0.0
  0
MTEXT
  5
2F1
330
2E4
100
AcDbEntity
  8
DIMS
100
AcDbMText
 10
36.8107024138
 20
6.5320588105
 30
0.0039370079
 40
0.2708333333
 41
0.0
 71
     1
 72
     1
  1
R2
  7
SLDTEXTSTYLE0
  0
MTEXT
  5
2F2
330
2E4
100
AcDbEntity
  8
DIMS
100
AcDbMText
 10
37.3488582628
 20
6.7165703307
 30
0.0039370079
 40
0.2708333333
 41
0.0
 71
     1
 72
     1
  1
1
  7
SLDTEXTSTYLE0
  0
MTEXT
  5
2F3
330
2E4
100
AcDbEntity
  8
DIMS
100
AcDbMText
 10
37.3488582628
 20
6.3477855934
 30
0.0039370079
 40
0.2708333333
 41
0.0
 71
     1
 72
     1
  1
4
  7
SLDTEXTSTYLE0
  0
MTEXT
  5
2F4
330
2E4
100
AcDbEntity
  8
DIMS
100
AcDbMText
 10
37.626211653
 20
6.5320588105
 30
0.0039370079
 40
0.2708333333
 41
0.0
 71
     1
 72
     1
  1
"
  7
SLDTEXTSTYLE0
  0
MTEXT
  5
2F5
330
2E4
100
AcDbEntity
  8
DIMS
100
AcDbMText
 10
36.8312656679
 20
5.8838581519
 30
0.0039370079
 40
0.2708333333
 41
0.0
 71
     1
 72
     1
  1
57.15
  7
SLDTEXTSTYLE0
  0
ENDBLK
  5
2E6
330
2E4
100
AcDbEntity
  8
0
100
AcDbBlockEnd
  0
BLOCK
  5
2F8
330
2F7
100
AcDbEntity
  8
0
100
AcDbBlockBegin
  2
_D_15
 70
     0
 10
0.0
 20
0.0
 30
0.0
  3
_D_15
  1

  0
SOLID
  5
2FA
330
2F7
100
AcDbEntity
  8
DIMS
100
AcDbTrace
 10
1.8615676762
 20
4.6747724712
 30
0.0
 11
2.0913708052
 21
4.80872081
 31
0.0
 12
2.0404821425
 22
4.87160044
 32
0.0
 13
2.0404821425
 23
4.87160044
 33
0.0
  0
LINE
  5
2FB
330
2F7
100
AcDbEntity
  8
DIMS
100
AcDbLine
 10
5.4335761136
 20
7.0529829823
 30
0.0
 11
5.7109294946
 21
7.0529829823
 31
0.0
  0
LINE
  5
2FC
330
2F7
100
AcDbEntity
  8
DIMS
100
AcDbLine
 10
4.8791200846
 20
6.6009922545
 30
0.0
 11
4.8189348986
 21
6.6009922545
 31
0.0
  0
LINE
  5
2FD
330
2F7
100
AcDbEntity
  8
DIMS
100
AcDbLine
 10
4.8189348986
 20
6.6009922545
 30
0.0
 11
4.8189348986
 21
6.1972499853
 31
0.0
  0
LINE
  5
2FE
330
2F7
100
AcDbEntity
  8
DIMS
100
AcDbLine
 10
4.8189348986
 20
6.1972499853
 30
0.0
 11
4.8791200846
 21
6.1972499853
 31
0.0
  0
LINE
  5
2FF
330
2F7
100
AcDbEntity
  8
DIMS
100
AcDbLine
 10
5.9323608141
 20
6.6009922545
 30
0.0
 11
5.9925460001
 21
6.6009922545
 31
0.0
  0
LINE
  5
300
330
2F7
100
AcDbEntity
  8
DIMS
100
AcDbLine
 10
5.9925460001
 20
6.6009922545
 30
0.0
 11
5.9925460001
 21
6.1972499853
 31
0.0
  0
LINE
  5
301
330
2F7
100
AcDbEntity
  8
DIMS
100
AcDbLine
 10
5.9925460001
 20
6.1972499853
 30
0.0
 11
5.9323608141
 21
6.1972499853
 31
0.0
  0
LINE
  5
302
330
2F7
100
AcDbEntity
  8
DIMS
100
AcDbLine
 10
1.8615676762
 20
4.6747724712
 30
0.0
 11
4.523796008
 21
6.8293214019
 31
0.0
  0
LINE
  5
303
330
2F7
100
AcDbEntity
  8
DIMS
100
AcDbLine
 10
4.523796008
 20
6.8293214019
 30
0.0
 11
4.773796008
 21
6.8293214019
 31
0.0
  0
MTEXT
  5
304
330
2F7
100
AcDbEntity
  8
DIMS
100
AcDbMText
 10
4.9337883164
 20
7.1945731476
 30
0.0039370079
 40
0.2708333333
 41
0.0
 71
     1
 72
     1
  1
R1
  7
SLDTEXTSTYLE0
  0
MTEXT
  5
305
330
2F7
100
AcDbEntity
  8
DIMS
100
AcDbMText
 10
5.4719441654
 20
7.3790846677
 30
0.0039370079
 40
0.2708333333
 41
0.0
 71
     1
 72
     1
  1
5
  7
SLDTEXTSTYLE0
  0
MTEXT
  5
306
330
2F7
100
AcDbEntity
  8
DIMS
100
AcDbMText
 10
5.4719441654
 20
7.0102999305
 30
0.0039370079
 40
0.2708333333
 41
0.0
 71
     1
 72
     1
  1
8
  7
SLDTEXTSTYLE0
  0
MTEXT
  5
307
330
2F7
100
AcDbEntity
  8
DIMS
100
AcDbMText
 10
5.7492975556
 20
7.1945731476
 30
0.0039370079
 40
0.2708333333
 41
0.0
 71
     1
 72
     1
  1
"
  7
SLDTEXTSTYLE0
  0
MTEXT
  5
308
330
2F7
100
AcDbEntity
  8
DIMS
100
AcDbMText
 10
4.9543515705
 20
6.546372489
 30
0.0039370079
 40
0.2708333333
 41
0.0
 71
     1
 72
     1
  1
41.28
  7
SLDTEXTSTYLE0
  0
ENDBLK
  5
2F9
330
2F7
100
AcDbEntity
  8
0
100
AcDbBlockEnd
  0
BLOCK
  5
30B
330
30A
100
AcDbEntity
  8
0
100
AcDbBlockBegin
  2
_D_16
 70
     0
 10
0.0
 20
0.0
 30
0.0
  3
_D_16
  1

  0
SOLID
  5
30D
330
30A
100
AcDbEntity
  8
DIMS
100
AcDbTrace
 10
38.9218830174
 20
21.9470509593
 30
0.0
 11
38.8814370539
 21
21.6841521963
 31
0.0
 12
38.962328981
 22
21.6841521963
 32
0.0
 13
38.962328981
 23
21.6841521963
 33
0.0
  0
SOLID
  5
30E
330
30A
100
AcDbEntity
  8
DIMS
100
AcDbTrace
 10
38.9218830174
 20
22.4470509593
 30
0.0
 11
38.962328981
 21
22.7099497223
 31
0.0
 12
38.8814370539
 22
22.7099497223
 32
0.0
 13
38.8814370539
 23
22.7099497223
 33
0.0
  0
LINE
  5
30F
330
30A
100
AcDbEntity
  8
DIMS
100
AcDbLine
 10
37.6565232611
 20
23.4274764068
 30
0.0
 11
37.9338766421
 21
23.4274764068
 31
0.0
  0
LINE
  5
310
330
30A
100
AcDbEntity
  8
DIMS
100
AcDbLine
 10
37.3327771002
 20
22.9754856791
 30
0.0
 11
37.2725919142
 21
22.9754856791
 31
0.0
  0
LINE
  5
311
330
30A
100
AcDbEntity
  8
DIMS
100
AcDbLine
 10
37.2725919142
 20
22.9754856791
 30
0.0
 11
37.2725919142
 21
22.5717434098
 31
0.0
  0
LINE
  5
312
330
30A
100
AcDbEntity
  8
DIMS
100
AcDbLine
 10
37.2725919142
 20
22.5717434098
 30
0.0
 11
37.3327771002
 21
22.5717434098
 31
0.0
  0
LINE
  5
313
330
30A
100
AcDbEntity
  8
DIMS
100
AcDbLine
 10
38.3860178297
 20
22.9754856791
 30
0.0
 11
38.4462030157
 21
22.9754856791
 31
0.0
  0
LINE
  5
314
330
30A
100
AcDbEntity
  8
DIMS
100
AcDbLine
 10
38.4462030157
 20
22.9754856791
 30
0.0
 11
38.4462030157
 21
22.5717434098
 31
0.0
  0
LINE
  5
315
330
30A
100
AcDbEntity
  8
DIMS
100
AcDbLine
 10
38.4462030157
 20
22.5717434098
 30
0.0
 11
38.3860178297
 21
22.5717434098
 31
0.0
  0
LINE
  5
316
330
30A
100
AcDbEntity
  8
DIMS
100
AcDbLine
 10
40.1684770853
 20
21.9470509593
 30
0.0
 11
38.7968830174
 21
21.9470509593
 31
0.0
  0
LINE
  5
317
330
30A
100
AcDbEntity
  8
DIMS
100
AcDbLine
 10
34.169463324
 20
22.4470509593
 30
0.0
 11
39.0468830174
 21
22.4470509593
 31
0.0
  0
LINE
  5
318
330
30A
100
AcDbEntity
  8
DIMS
100
AcDbLine
 10
38.6718830174
 20
23.1385624985
 30
0.0
 11
38.9218830174
 21
23.1385624985
 31
0.0
  0
LINE
  5
319
330
30A
100
AcDbEntity
  8
DIMS
100
AcDbLine
 10
38.9218830174
 20
23.1385624985
 30
0.0
 11
38.9218830174
 21
22.4470509593
 31
0.0
  0
LINE
  5
31A
330
30A
100
AcDbEntity
  8
DIMS
100
AcDbLine
 10
38.9218830174
 20
21.9470509593
 30
0.0
 11
38.9218830174
 21
21.441476415
 31
0.0
  0
MTEXT
  5
31B
330
30A
100
AcDbEntity
  8
DIMS
100
AcDbMText
 10
37.6948913128
 20
23.7535780923
 30
0.0039370079
 40
0.2708333333
 41
0.0
 71
     1
 72
     1
  1
1
  7
SLDTEXTSTYLE0
  0
MTEXT
  5
31C
330
30A
100
AcDbEntity
  8
DIMS
100
AcDbMText
 10
37.6948913128
 20
23.384793355
 30
0.0039370079
 40
0.2708333333
 41
0.0
 71
     1
 72
     1
  1
2
  7
SLDTEXTSTYLE0
  0
MTEXT
  5
31D
330
30A
100
AcDbEntity
  8
DIMS
100
AcDbMText
 10
37.972244703
 20
23.5690665721
 30
0.0039370079
 40
0.2708333333
 41
0.0
 71
     1
 72
     1
  1
"
  7
SLDTEXTSTYLE0
  0
MTEXT
  5
31E
330
30A
100
AcDbEntity
  8
DIMS
100
AcDbMText
 10
37.4080085861
 20
22.9208659135
 30
0.0039370079
 40
0.2708333333
 41
0.0
 71
     1
 72
     1
  1
12.70
  7
SLDTEXTSTYLE0
  0
ENDBLK
  5
30C
330
30A
100
AcDbEntity
  8
0
100
AcDbBlockEnd
  0
BLOCK
  5
320
330
31F
100
AcDbEntity
  8
0
100
AcDbBlockBegin
  2
SW_NOTE_0
 70
     0
 10
0.0
 20
0.0
 30
0.0
  3
SW_NOTE_0
  1

  0
MTEXT
  5
322
330
31F
100
AcDbEntity
  8
NOTES
 62
     0
100
AcDbMText
 10
0.0052617878
 20
0.2697290972
 30
0.0
 40
0.2083333333
 41
0.0
 71
     3
 72
     1
  1
1/2" REVEAL
  7
SLDTEXTSTYLE0
  0
MTEXT
  5
323
330
31F
100
AcDbEntity
  8
NOTES
 62
     0
100
AcDbMText
 10
0.0102291224
 20
-0.0080486772
 30
0.0
 40
0.2083333333
 41
0.0
 71
     3
 72
     1
  1
[12.7 REVELADO]
  7
SLDTEXTSTYLE0
  0
ENDBLK
  5
321
330
31F
100
AcDbEntity
  8
0
100
AcDbBlockEnd
  0
BLOCK
  5
328
330
327
100
AcDbEntity
  8
0
100
AcDbBlockBegin
  2
SW_NOTE_1
 70
     0
 10
0.0
 20
0.0
 30
0.0
  3
SW_NOTE_1
  1

  0
MTEXT
  5
32A
330
327
100
AcDbEntity
  8
NOTES
 62
     0
100
AcDbMText
 10
-0.8909693733
 20
0.6871491254
 30
0.0
 40
0.2083333333
 41
0.0
 71
     2
 72
     1
  1
TEMPLATE
  7
SLDTEXTSTYLE0
  0
MTEXT
  5
32B
330
327
100
AcDbEntity
  8
NOTES
 62
     0
100
AcDbMText
 10
-0.8878347031
 20
0.409371351
 30
0.0
 40
0.2083333333
 41
0.0
 71
     2
 72
     1
  1
CENTERLINE
  7
SLDTEXTSTYLE0
  0
MTEXT
  5
32C
330
327
100
AcDbEntity
  8
NOTES
 62
     0
100
AcDbMText
 10
-0.887714165
 20
-0.1461841979
 30
0.0
 40
0.2083333333
 41
0.0
 71
     2
 72
     1
  1
PLANTILLA
  7
SLDTEXTSTYLE0
  0
MTEXT
  5
32D
330
327
100
AcDbEntity
  8
NOTES
 62
     0
100
AcDbMText
 10
-0.8907282305
 20
-0.4239619723
 30
0.0
 40
0.2083333333
 41
0.0
 71
     2
 72
     1
  1
CENTRAL
  7
SLDTEXTSTYLE0
  0
ENDBLK
  5
329
330
327
100
AcDbEntity
  8
0
100
AcDbBlockEnd
  0
BLOCK
  5
332
330
331
100
AcDbEntity
  8
0
100
AcDbBlockBegin
  2
SW_NOTE_2
 70
     0
 10
0.0
 20
0.0
 30
0.0
  3
SW_NOTE_2
  1

  0
MTEXT
  5
334
330
331
100
AcDbEntity
  8
NOTES
 62
     0
100
AcDbMText
 10
0.0213632961
 20
0.2688918339
 30
0.0
 40
0.2083333333
 41
0.0
 71
     1
 72
     1
  1
1/8" OVERHANG
  7
SLDTEXTSTYLE0
  0
MTEXT
  5
335
330
331
100
AcDbEntity
  8
NOTES
 62
     0
100
AcDbMText
 10
0.0213632961
 20
-0.0088859405
 30
0.0
 40
0.2083333333
 41
0.0
 71
     1
 72
     1
  1
[3.2 SOBRESALIENTE]
  7
SLDTEXTSTYLE0
  0
ENDBLK
  5
333
330
331
100
AcDbEntity
  8
0
100
AcDbBlockEnd
  0
BLOCK
  5
339
330
338
100
AcDbEntity
  8
0
100
AcDbBlockBegin
  2
SW_NOTE_3
 70
     0
 10
0.0
 20
0.0
 30
0.0
  3
SW_NOTE_3
  1

  0
MTEXT
  5
33B
330
338
100
AcDbEntity
  8
NOTES
 62
     0
100
AcDbMText
 10
0.0
 20
0.2148446233
 30
0.0
 40
0.1666666667
 41
0.0
 71
     1
 72
     1
  1
NOTES:
  7
SLDTEXTSTYLE0
  0
MTEXT
  5
33C
330
338
100
AcDbEntity
  8
NOTES
 62
     0
100
AcDbMText
 10
0.3937007786
 20
-0.2295998158
 30
0.0
 40
0.1666666667
 41
0.0
 71
     1
 72
     1
  1
THOROUGHLY READ ALL  INSTALLATION INSTRUCTIONS
  7
SLDTEXTSTYLE0
  0
MTEXT
  5
33D
330
338
100
AcDbEntity
  8
NOTES
 62
     0
100
AcDbMText
 10
0.0
 20
-0.2295998158
 30
0.0
 40
0.1666666667
 41
0.0
 71
     1
 72
     1
  1
1.
  7
SLDTEXTSTYLE0
  0
MTEXT
  5
33E
330
338
100
AcDbEntity
  8
NOTES
 62
     0
100
AcDbMText
 10
0.0
 20
-0.4518220353
 30
0.0
 40
0.1666666667
 41
0.0
 71
     1
 72
     1
  1
BEFORE CUTTING COUNTERTOP.
  7
SLDTEXTSTYLE0
  0
MTEXT
  5
33F
330
338
100
AcDbEntity
  8
NOTES
 62
     0
100
AcDbMText
 10
0.0
 20
-0.8962664744
 30
0.0
 40
0.1666666667
 41
0.0
 71
     1
 72
     1
  1
2.  DIMENSIONS ARE IN INCHES [MM].
  7
SLDTEXTSTYLE0
  0
MTEXT
  5
341
330
338
100
AcDbEntity
  8
NOTES
 62
     0
100
AcDbMText
 10
0.0
 20
-1.562933133
 30
0.0
 40
0.1666666667
 41
0.0
 71
     1
 72
     1
  1
PLEASE CHECK TEMPLATE AGAINST PHYSICAL SINK FOR MOST 
  7
SLDTEXTSTYLE1
  0
MTEXT
  5
342
330
338
100
AcDbEntity
  8
NOTES
 62
     0
100
AcDbMText
 10
0.0
 20
-1.7851553525
 30
0.0
 40
0.1666666667
 41
0.0
 71
     1
 72
     1
  1
ACCURATE CUT.
  7
SLDTEXTSTYLE1
  0
MTEXT
  5
343
330
338
100
AcDbEntity
  8
NOTES
 62
     0
100
AcDbMText
 10
0.0
 20
-2.6740442307
 30
0.0
 40
0.1666666667
 41
0.0
 71
     1
 72
     1
  1
NOTAS:
  7
SLDTEXTSTYLE0
  0
MTEXT
  5
344
330
338
100
AcDbEntity
  8
NOTES
 62
     0
100
AcDbMText
 10
0.0
 20
-3.1184886698
 30
0.0
 40
0.1666666667
 41
0.0
 71
     1
 72
     1
  1
1.  LEA ATENTAMENTE LAS INSTRUCCIONES DE INSTALACIÓN ANTES 
  7
SLDTEXTSTYLE0
  0
MTEXT
  5
345
330
338
100
AcDbEntity
  8
NOTES
 62
     0
100
AcDbMText
 10
0.0
 20
-3.3407108893
 30
0.0
 40
0.1666666667
 41
0.0
 71
     1
 72
     1
  1
DE CORTAR LA ENCIMERA.
  7
SLDTEXTSTYLE0
  0
MTEXT
  5
346
330
338
100
AcDbEntity
  8
NOTES
 62
     0
100
AcDbMText
 10
0.0
 20
-3.7851553284
 30
0.0
 40
0.1666666667
 41
0.0
 71
     1
 72
     1
  1
2.  DIMENSIONES EN PULGADAS [MM].
  7
SLDTEXTSTYLE0
  0
MTEXT
  5
347
330
338
100
AcDbEntity
  8
NOTES
 62
     0
100
AcDbMText
 10
0.0
 20
-4.451821987
 30
0.0
 40
0.1666666667
 41
0.0
 71
     1
 72
     1
  1
POR FAVOR COMPRUEBE PLANTILLA CONTRA FREGADERO FÍSICO 
  7
SLDTEXTSTYLE1
  0
MTEXT
  5
348
330
338
100
AcDbEntity
  8
NOTES
 62
     0
100
AcDbMText
 10
0.0
 20
-4.6740442065
 30
0.0
 40
0.1666666667
 41
0.0
 71
     1
 72
     1
  1
PARA CORTE MÁS EXACTO.
  7
SLDTEXTSTYLE1
  0
ENDBLK
  5
33A
330
338
100
AcDbEntity
  8
0
100
AcDbBlockEnd
  0
BLOCK
  5
34C
330
34B
100
AcDbEntity
  8
0
100
AcDbBlockBegin
  2
SW_NOTE_4
 70
     0
 10
0.0
 20
0.0
 30
0.0
  3
SW_NOTE_4
  1

  0
MTEXT
  5
34E
330
34B
100
AcDbEntity
  8
NOTES
 62
     0
100
AcDbMText
 10
6.0042317708
 20
0.9399452269
 30
0.0
 40
0.7291666667
 41
0.0
 71
     2
 72
     1
  1
TEMPLATE #: 1000001461
  7
SLDTEXTSTYLE0
  0
MTEXT
  5
34F
330
34B
100
AcDbEntity
  8
NOTES
 62
     0
100
AcDbMText
 10
6.0010706111
 20
-0.0138329746
 30
0.0
 40
0.3125
 41
0.0
 71
     2
 72
     1
  1
DUAL RIGHT UNDERMOUNT TEMPLATE 41-1/2" X 20-1/2" W/ 1-3/4" RADIUS
  7
SLDTEXTSTYLE0
  0
MTEXT
  5
350
330
34B
100
AcDbEntity
  8
NOTES
 62
     0
100
AcDbMText
 10
5.9607082547
 20
-0.4304996546
 30
0.0
 40
0.3125
 41
0.0
 71
     2
 72
     1
  1
*DRAINBOARD ON LEFT
  7
SLDTEXTSTYLE0
  0
ENDBLK
  5
34D
330
34B
100
AcDbEntity
  8
0
100
AcDbBlockEnd
  0
ENDSEC
  0
SECTION
  2
ENTITIES
  0
LINE
  5
17F
330
1F
100
AcDbEntity
  8
OBJECTS
100
AcDbLine
 10
3.1247270853
 20
3.4470509593
 30
0.0
 11
36.4232270853
 21
3.4470509593
 31
0.0
  0
LINE
  5
180
330
1F
100
AcDbEntity
  8
OBJECTS
100
AcDbLine
 10
40.8747557442
 20
7.8836509593
 30
0.0
 11
40.8747557442
 21
15.7569509593
 31
0.0
  0
LINE
  5
181
330
1F
100
AcDbEntity
  8
OBJECTS
100
AcDbLine
 10
34.119463324
 20
22.4470509593
 30
0.0
 11
30.6299908466
 21
22.4470509593
 31
0.0
  0
LINE
  5
182
330
1F
100
AcDbEntity
  8
OBJECTS
100
AcDbLine
 10
24.5642374545
 20
20.1189259593
 30
0.0
 11
14.5297270853
 21
20.1189259593
 31
0.0
  0
LINE
  5
183
330
1F
100
AcDbEntity
  8
OBJECTS
100
AcDbLine
 10
13.6614248192
 20
20.4697312225
 30
0.0
 11
12.2676711642
 21
21.8156014856
 31
0.0
  0
LINE
  5
184
330
1F
100
AcDbEntity
  8
OBJECTS
100
AcDbLine
 10
10.7047270853
 20
22.4470509593
 30
0.0
 11
3.1247270853
 21
22.4470509593
 31
0.0
  0
LINE
  5
185
330
1F
100
AcDbEntity
  8
OBJECTS
100
AcDbLine
 10
0.8747270853
 20
20.1970509593
 30
0.0
 11
0.8747270853
 21
5.6970509593
 31
0.0
  0
ARC
  5
186
330
1F
100
AcDbEntity
  8
OBJECTS
100
AcDbCircle
 10
36.4232270853
 20
43.9320509593
 30
0.0
 40
40.48500000000001
100
AcDbArc
 50
270.0
 51
273.212059096
  0
ARC
  5
187
330
1F
100
AcDbEntity
  8
OBJECTS
100
AcDbCircle
 10
38.5655970897
 20
5.7571184019
 30
0.0
 40
2.249999999999996
100
AcDbArc
 50
273.212059096
 51
356.8129646381
  0
ARC
  5
188
330
1F
100
AcDbEntity
  8
OBJECTS
100
AcDbCircle
 10
0.3747270853
 20
7.8836509593
 30
0.0
 40
40.50002865894351
100
AcDbArc
 50
356.8129646381
 51
0.0
  0
ARC
  5
189
330
1F
100
AcDbEntity
  8
OBJECTS
100
AcDbCircle
 10
0.3747270853
 20
15.7569509593
 30
0.0
 40
40.50002865894352
100
AcDbArc
 50
0.0
 51
3.2103906534
  0
ARC
  5
18A
330
1F
100
AcDbEntity
  8
OBJECTS
100
AcDbCircle
 10
38.5647270853
 20
17.8990509593
 30
0.0
 40
2.250000000000002
100
AcDbArc
 50
3.2103906534
 51
36.9918647433
  0
ARC
  5
18B
330
1F
100
AcDbEntity
  8
OBJECTS
100
AcDbCircle
 10
30.3776270853
 20
11.7314509593
 30
0.0
 40
12.50026322442502
100
AcDbArc
 50
36.9918647433
 51
54.9805768867
  0
ARC
  5
18C
330
1F
100
AcDbEntity
  8
OBJECTS
100
AcDbCircle
 10
36.2427270853
 20
20.1380509593
 30
0.0
 40
2.250000000000009
100
AcDbArc
 50
54.4485114579
 51
86.8166165739
  0
ARC
  5
18D
330
1F
100
AcDbEntity
  8
OBJECTS
100
AcDbCircle
 10
34.119463324
 20
-18.0379490407
 30
0.0
 40
40.48500000000002
100
AcDbArc
 50
86.8166165739
 51
90.0
  0
ARC
  5
18E
330
1F
100
AcDbEntity
  8
OBJECTS
100
AcDbCircle
 10
30.6299908466
 20
-18.0379490407
 30
0.0
 40
40.48500000000001
100
AcDbArc
 50
90.0
 51
93.1833834261
  0
ARC
  5
18F
330
1F
100
AcDbEntity
  8
OBJECTS
100
AcDbCircle
 10
28.5067270853
 20
20.1380509593
 30
0.0
 40
2.249999999999998
100
AcDbArc
 50
93.1833834261
 51
125.5514885421
  0
ARC
  5
190
330
1F
100
AcDbEntity
  8
OBJECTS
100
AcDbCircle
 10
34.3718270853
 20
11.7314509593
 30
0.0
 40
12.50026322442501
100
AcDbArc
 50
125.0194231133
 51
135.5012378159
  0
ARC
  5
191
330
1F
100
AcDbEntity
  8
OBJECTS
100
AcDbCircle
 10
24.5642374545
 20
21.3689259593
 30
0.0
 40
1.250000000000003
100
AcDbArc
 50
270.0
 51
315.5012378159
  0
ARC
  5
192
330
1F
100
AcDbEntity
  8
OBJECTS
100
AcDbCircle
 10
14.5297270853
 20
21.3689259593
 30
0.0
 40
1.249999999999998
100
AcDbArc
 50
226.0013188053
 51
270.0
  0
ARC
  5
193
330
1F
100
AcDbEntity
  8
OBJECTS
100
AcDbCircle
 10
10.7047270853
 20
20.1970509593
 30
0.0
 40
2.249999999999998
100
AcDbArc
 50
46.0013188053
 51
90.0
  0
ARC
  5
194
330
1F
100
AcDbEntity
  8
OBJECTS
100
AcDbCircle
 10
3.1247270853
 20
20.1970509593
 30
0.0
 40
2.250000000000001
100
AcDbArc
 50
90.0
 51
180.0
  0
ARC
  5
195
330
1F
100
AcDbEntity
  8
OBJECTS
100
AcDbCircle
 10
3.1247270853
 20
5.6970509593
 30
0.0
 40
2.250000000000001
100
AcDbArc
 50
180.0
 51
270.0
  0
LINE
  5
196
330
1F
100
AcDbEntity
  8
OBJECTS
100
AcDbLine
 10
3.1247270853
 20
3.4470509593
 30
0.0
 11
36.4232270853
 21
3.4470509593
 31
0.0
  0
LINE
  5
197
330
1F
100
AcDbEntity
  8
OBJECTS
100
AcDbLine
 10
40.8747557442
 20
7.8836509593
 30
0.0
 11
40.8747557442
 21
15.7569509593
 31
0.0
  0
LINE
  5
198
330
1F
100
AcDbEntity
  8
OBJECTS
100
AcDbLine
 10
34.119463324
 20
22.4470509593
 30
0.0
 11
30.6299908466
 21
22.4470509593
 31
0.0
  0
LINE
  5
199
330
1F
100
AcDbEntity
  8
OBJECTS
100
AcDbLine
 10
24.5642374545
 20
20.1189259593
 30
0.0
 11
14.5297270853
 21
20.1189259593
 31
0.0
  0
LINE
  5
19A
330
1F
100
AcDbEntity
  8
OBJECTS
100
AcDbLine
 10
13.6614248192
 20
20.4697312225
 30
0.0
 11
12.2676711642
 21
21.8156014856
 31
0.0
  0
LINE
  5
19B
330
1F
100
AcDbEntity
  8
OBJECTS
100
AcDbLine
 10
10.7047270853
 20
22.4470509593
 30
0.0
 11
3.1247270853
 21
22.4470509593
 31
0.0
  0
LINE
  5
19C
330
1F
100
AcDbEntity
  8
OBJECTS
100
AcDbLine
 10
0.8747270853
 20
20.1970509593
 30
0.0
 11
0.8747270853
 21
5.6970509593
 31
0.0
  0
LINE
  5
19D
330
1F
100
AcDbEntity
  8
OBJECTS
  6
CENTERX2
 62
     1
100
AcDbLine
 10
24.5642374545
 20
19.4939259593
 30
0.0
 11
14.5297270853
 21
19.4939259593
 31
0.0
  0
LINE
  5
19E
330
1F
100
AcDbEntity
  8
OBJECTS
  6
CENTERX2
 62
     1
100
AcDbLine
 10
13.2272736861
 20
20.0201338541
 30
0.0
 11
11.8335200312
 21
21.3660041172
 31
0.0
  0
LINE
  5
19F
330
1F
100
AcDbEntity
  8
OBJECTS
  6
CENTERX2
 62
     1
100
AcDbLine
 10
10.7047270853
 20
21.8220509593
 30
0.0
 11
3.1247270853
 21
21.8220509593
 31
0.0
  0
LINE
  5
1A0
330
1F
100
AcDbEntity
  8
OBJECTS
  6
CENTERX2
 62
     1
100
AcDbLine
 10
1.4997270853
 20
20.1970509593
 30
0.0
 11
1.4997270853
 21
5.6970509593
 31
0.0
  0
LINE
  5
1A1
330
1F
100
AcDbEntity
  8
OBJECTS
  6
CENTERX2
 62
     1
100
AcDbLine
 10
3.1247270853
 20
4.0720509593
 30
0.0
 11
36.4232270853
 21
4.0720509593
 31
0.0
  0
LINE
  5
1A2
330
1F
100
AcDbEntity
  8
OBJECTS
  6
CENTERX2
 62
     1
100
AcDbLine
 10
40.2497557442
 20
7.8836509593
 30
0.0
 11
40.2497557442
 21
15.7569509593
 31
0.0
  0
LINE
  5
1A3
330
1F
100
AcDbEntity
  8
OBJECTS
  6
CENTERX2
 62
     1
100
AcDbLine
 10
34.119463324
 20
21.8220509593
 30
0.0
 11
30.6299908466
 21
21.8220509593
 31
0.0
  0
LINE
  5
1A4
330
1F
100
AcDbEntity
  8
OBJECTS
  6
CENTERX2
100
AcDbLine
 10
19.7739770853
 20
3.4470509593
 30
0.0
 11
19.7739770853
 21
5.2253526447
 31
0.0
  0
LINE
  5
1A5
330
1F
100
AcDbEntity
  8
OBJECTS
  6
CENTERX2
100
AcDbLine
 10
19.5469822699
 20
20.1189259593
 30
0.0
 11
19.5469822699
 21
18.3406242739
 31
0.0
  0
LINE
  5
1A6
330
1F
100
AcDbEntity
  8
OBJECTS
  6
CENTERX2
100
AcDbLine
 10
0.8747270853
 20
12.9470509593
 30
0.0
 11
2.6530287707
 21
12.9470509593
 31
0.0
  0
LINE
  5
1A7
330
1F
100
AcDbEntity
  8
OBJECTS
  6
CENTERX2
100
AcDbLine
 10
39.0964540588
 20
12.9470509593
 30
0.0
 11
40.8747557442
 21
12.9470509593
 31
0.0
  0
ARC
  5
1A8
330
1F
100
AcDbEntity
  8
OBJECTS
100
AcDbCircle
 10
36.4232270853
 20
43.9320509593
 30
0.0
 40
40.48500000000001
100
AcDbArc
 50
270.0
 51
273.212059096
  0
ARC
  5
1A9
330
1F
100
AcDbEntity
  8
OBJECTS
100
AcDbCircle
 10
38.5655970897
 20
5.7571184019
 30
0.0
 40
2.249999999999996
100
AcDbArc
 50
273.212059096
 51
356.8129646381
  0
ARC
  5
1AA
330
1F
100
AcDbEntity
  8
OBJECTS
100
AcDbCircle
 10
0.3747270853
 20
7.8836509593
 30
0.0
 40
40.50002865894351
100
AcDbArc
 50
356.8129646381
 51
0.0
  0
ARC
  5
1AB
330
1F
100
AcDbEntity
  8
OBJECTS
100
AcDbCircle
 10
0.3747270853
 20
15.7569509593
 30
0.0
 40
40.50002865894352
100
AcDbArc
 50
0.0
 51
3.2103906534
  0
ARC
  5
1AC
330
1F
100
AcDbEntity
  8
OBJECTS
100
AcDbCircle
 10
38.5647270853
 20
17.8990509593
 30
0.0
 40
2.250000000000002
100
AcDbArc
 50
3.2103906534
 51
36.9918647433
  0
ARC
  5
1AD
330
1F
100
AcDbEntity
  8
OBJECTS
100
AcDbCircle
 10
30.3776270853
 20
11.7314509593
 30
0.0
 40
12.50026322442502
100
AcDbArc
 50
36.9918647433
 51
54.9805768867
  0
ARC
  5
1AE
330
1F
100
AcDbEntity
  8
OBJECTS
100
AcDbCircle
 10
36.2427270853
 20
20.1380509593
 30
0.0
 40
2.250000000000009
100
AcDbArc
 50
54.4485114579
 51
86.8166165739
  0
ARC
  5
1AF
330
1F
100
AcDbEntity
  8
OBJECTS
100
AcDbCircle
 10
34.119463324
 20
-18.0379490407
 30
0.0
 40
40.48500000000002
100
AcDbArc
 50
86.8166165739
 51
90.0
  0
ARC
  5
1B0
330
1F
100
AcDbEntity
  8
OBJECTS
100
AcDbCircle
 10
30.6299908466
 20
-18.0379490407
 30
0.0
 40
40.48500000000001
100
AcDbArc
 50
90.0
 51
93.1833834261
  0
ARC
  5
1B1
330
1F
100
AcDbEntity
  8
OBJECTS
100
AcDbCircle
 10
28.5067270853
 20
20.1380509593
 30
0.0
 40
2.249999999999998
100
AcDbArc
 50
93.1833834261
 51
125.5514885421
  0
ARC
  5
1B2
330
1F
100
AcDbEntity
  8
OBJECTS
100
AcDbCircle
 10
34.3718270853
 20
11.7314509593
 30
0.0
 40
12.50026322442501
100
AcDbArc
 50
125.0194231133
 51
135.5012378159
  0
ARC
  5
1B3
330
1F
100
AcDbEntity
  8
OBJECTS
100
AcDbCircle
 10
24.5642374545
 20
21.3689259593
 30
0.0
 40
1.250000000000003
100
AcDbArc
 50
270.0
 51
315.5012378159
  0
ARC
  5
1B4
330
1F
100
AcDbEntity
  8
OBJECTS
100
AcDbCircle
 10
14.5297270853
 20
21.3689259593
 30
0.0
 40
1.249999999999998
100
AcDbArc
 50
226.0013188053
 51
270.0
  0
ARC
  5
1B5
330
1F
100
AcDbEntity
  8
OBJECTS
100
AcDbCircle
 10
10.7047270853
 20
20.1970509593
 30
0.0
 40
2.249999999999998
100
AcDbArc
 50
46.0013188053
 51
90.0
  0
ARC
  5
1B6
330
1F
100
AcDbEntity
  8
OBJECTS
100
AcDbCircle
 10
3.1247270853
 20
20.1970509593
 30
0.0
 40
2.250000000000001
100
AcDbArc
 50
90.0
 51
180.0
  0
ARC
  5
1B7
330
1F
100
AcDbEntity
  8
OBJECTS
100
AcDbCircle
 10
3.1247270853
 20
5.6970509593
 30
0.0
 40
2.250000000000001
100
AcDbArc
 50
180.0
 51
270.0
  0
ARC
  5
1B8
330
1F
100
AcDbEntity
  8
OBJECTS
  6
CENTERX2
 62
     1
100
AcDbCircle
 10
14.5297270853
 20
21.3689259593
 30
0.0
 40
1.875
100
AcDbArc
 50
226.0013188053
 51
270.0
  0
ARC
  5
1B9
330
1F
100
AcDbEntity
  8
OBJECTS
  6
CENTERX2
 62
     1
100
AcDbCircle
 10
10.7047270853
 20
20.1970509593
 30
0.0
 40
1.624999999999998
100
AcDbArc
 50
46.0013188053
 51
90.0
  0
ARC
  5
1BA
330
1F
100
AcDbEntity
  8
OBJECTS
  6
CENTERX2
 62
     1
100
AcDbCircle
 10
3.1247270853
 20
20.1970509593
 30
0.0
 40
1.625
100
AcDbArc
 50
90.0
 51
180.0
  0
ARC
  5
1BB
330
1F
100
AcDbEntity
  8
OBJECTS
  6
CENTERX2
 62
     1
100
AcDbCircle
 10
3.1247270853
 20
5.6970509593
 30
0.0
 40
1.625
100
AcDbArc
 50
180.0
 51
270.0
  0
ARC
  5
1BC
330
1F
100
AcDbEntity
  8
OBJECTS
  6
CENTERX2
 62
     1
100
AcDbCircle
 10
36.4232270853
 20
43.9320509593
 30
0.0
 40
39.86000000000001
100
AcDbArc
 50
270.0
 51
273.212059096
  0
ARC
  5
1BD
330
1F
100
AcDbEntity
  8
OBJECTS
  6
CENTERX2
 62
     1
100
AcDbCircle
 10
38.5655970897
 20
5.7571184019
 30
0.0
 40
1.624999999999995
100
AcDbArc
 50
273.212059096
 51
356.8129646381
  0
ARC
  5
1BE
330
1F
100
AcDbEntity
  8
OBJECTS
  6
CENTERX2
 62
     1
100
AcDbCircle
 10
0.3747270853
 20
7.8836509593
 30
0.0
 40
39.87502865894351
100
AcDbArc
 50
356.8129646381
 51
0.0
  0
ARC
  5
1BF
330
1F
100
AcDbEntity
  8
OBJECTS
  6
CENTERX2
 62
     1
100
AcDbCircle
 10
0.3747270853
 20
15.7569509593
 30
0.0
 40
39.87502865894351
100
AcDbArc
 50
0.0
 51
3.2103906534
  0
ARC
  5
1C0
330
1F
100
AcDbEntity
  8
OBJECTS
  6
CENTERX2
 62
     1
100
AcDbCircle
 10
38.5647270853
 20
17.8990509593
 30
0.0
 40
1.625000000000005
100
AcDbArc
 50
3.2103906534
 51
36.9918647433
  0
ARC
  5
1C1
330
1F
100
AcDbEntity
  8
OBJECTS
  6
CENTERX2
 62
     1
100
AcDbCircle
 10
30.3776270853
 20
11.7314509593
 30
0.0
 40
11.87526322442502
100
AcDbArc
 50
36.9918647433
 51
54.995536493
  0
ARC
  5
1C2
330
1F
100
AcDbEntity
  8
OBJECTS
  6
CENTERX2
 62
     1
100
AcDbCircle
 10
36.2427270853
 20
20.1380509593
 30
0.0
 40
1.625000000000001
100
AcDbArc
 50
54.3531915811
 51
86.8166165739
  0
ARC
  5
1C3
330
1F
100
AcDbEntity
  8
OBJECTS
  6
CENTERX2
 62
     1
100
AcDbCircle
 10
34.119463324
 20
-18.0379490407
 30
0.0
 40
39.86000000000001
100
AcDbArc
 50
86.8166165739
 51
90.0
  0
ARC
  5
1C4
330
1F
100
AcDbEntity
  8
OBJECTS
  6
CENTERX2
 62
     1
100
AcDbCircle
 10
30.6299908466
 20
-18.0379490407
 30
0.0
 40
39.86000000000001
100
AcDbArc
 50
90.0
 51
93.1833834261
  0
ARC
  5
1C5
330
1F
100
AcDbEntity
  8
OBJECTS
  6
CENTERX2
 62
     1
100
AcDbCircle
 10
28.5067270853
 20
20.1380509593
 30
0.0
 40
1.625
100
AcDbArc
 50
93.1833834261
 51
125.6468084189
  0
ARC
  5
1C6
330
1F
100
AcDbEntity
  8
OBJECTS
  6
CENTERX2
 62
     1
100
AcDbCircle
 10
34.3718270853
 20
11.7314509593
 30
0.0
 40
11.87526322442502
100
AcDbArc
 50
125.004463507
 51
135.5012378159
  0
ARC
  5
1C7
330
1F
100
AcDbEntity
  8
OBJECTS
  6
CENTERX2
 62
     1
100
AcDbCircle
 10
24.5642374545
 20
21.3689259593
 30
0.0
 40
1.875
100
AcDbArc
 50
270.0
 51
315.5012378159
  0
CIRCLE
  5
1C8
330
1F
100
AcDbEntity
  8
OBJECTS
100
AcDbCircle
 10
15.5309770853
 20
21.6970509593
 30
0.0
 40
0.7500000000000006
  0
CIRCLE
  5
1C9
330
1F
100
AcDbEntity
  8
OBJECTS
100
AcDbCircle
 10
19.5309770853
 20
21.6970509593
 30
0.0
 40
0.7500000000000039
  0
CIRCLE
  5
1CA
330
1F
100
AcDbEntity
  8
OBJECTS
100
AcDbCircle
 10
23.5309770853
 20
21.6970509593
 30
0.0
 40
0.7500000000000006
  0
CIRCLE
  5
1CB
330
1F
100
AcDbEntity
  8
OBJECTS
100
AcDbCircle
 10
40.2184770853
 20
21.9470509593
 30
0.0
 40
0.7500000000000039
  0
INSERT
  5
1CC
330
1F
100
AcDbEntity
  8
BLOCKS
100
AcDbBlockReference
  2
OVERHANG_-__125
 10
-9.2982590969
 20
-21.427519619
 30
0.0
  0
INSERT
  5
1CD
330
1F
100
AcDbEntity
  8
BLOCKS
100
AcDbBlockReference
  2
REVEAL-__500
 10
10.2143070097
 20
-23.9915898194
 30
0.0
  0
DIMENSION
  5
1CE
330
1F
100
AcDbEntity
  8
DIMS
100
AcDbDimension
  2
_D
 10
24.5642374545
 20
21.3689259593
 30
0.0
 11
26.8960300244
 21
18.5785001251
 31
0.0
 70
   164
  1
<>
  3
SLDDIMSTYLE0
100
AcDbRadialDimension
 15
25.4448980062
 25
19.7136126981
 35
0.0
 40
0.0
  0
DIMENSION
  5
1E2
330
1F
100
AcDbEntity
  8
DIMS
100
AcDbDimension
  2
_D_1
 10
14.5297270853
 20
21.3689259593
 30
0.0
 11
11.5557446845
 21
19.3516979108
 31
0.0
 70
   164
  1
<>
  3
SLDDIMSTYLE0
100
AcDbRadialDimension
 15
13.6157787809
 25
20.5161666164
 35
0.0
 40
0.0
  0
DIMENSION
  5
1F6
330
1F
100
AcDbEntity
  8
DIMS
100
AcDbDimension
  2
_D_2
 10
30.3776270853
 20
11.7314509593
 30
0.0
 11
35.663690302
 21
19.1879218671
 31
0.0
 70
   164
  1
<>
  3
SLDDIMSTYLE0
100
AcDbRadialDimension
 15
37.2455380707
 25
21.4192616174
 35
0.0
 40
0.0
  0
DIMENSION
  5
209
330
1F
100
AcDbEntity
  8
DIMS
100
AcDbDimension
  2
_D_3
 10
30.3776270853
 20
11.7314509593
 30
0.0
 11
37.7771557451
 21
18.1986098883
 31
0.0
 70
   164
  1
<>
  3
SLDDIMSTYLE0
100
AcDbRadialDimension
 15
39.7897151283
 25
19.957578806
 35
0.0
 40
0.0
  0
DIMENSION
  5
21C
330
1F
100
AcDbEntity
  8
DIMS
100
AcDbDimension
  2
_D_4
 10
6.4282766564
 20
4.0720509593
 30
0.0
 11
6.4282766564
 21
13.3194267345
 31
0.0
 70
   160
  1
<>
  3
SLDDIMSTYLE1
100
AcDbAlignedDimension
 13
3.1247270853
 23
21.8220509593
 33
0.0
 14
3.1247270853
 24
4.0720509593
 34
0.0
 50
90.0
100
AcDbRotatedDimension
  0
DIMENSION
  5
231
330
1F
100
AcDbEntity
  8
DIMS
100
AcDbDimension
  2
_D_5
 10
4.0395901336
 20
3.4470509593
 30
0.0
 11
4.0395901336
 21
11.3476633389
 31
0.0
 70
   160
  1
<>
  3
SLDDIMSTYLE2
100
AcDbAlignedDimension
 13
3.1247270853
 23
22.4470509593
 33
0.0
 14
3.1247270853
 24
3.4470509593
 34
0.0
 50
90.0
100
AcDbRotatedDimension
  0
DIMENSION
  5
242
330
1F
100
AcDbEntity
  8
DIMS
100
AcDbDimension
  2
_D_6
 10
0.8747270853
 20
15.4278807363
 30
0.0
 11
14.5175042693
 21
15.4278807363
 31
0.0
 70
   160
  1
<>
  3
SLDDIMSTYLE2
100
AcDbAlignedDimension
 13
40.8747557442
 23
15.7569509593
 33
0.0
 14
0.8747270853
 24
20.1970509593
 34
0.0
 50
0.0
100
AcDbRotatedDimension
  0
DIMENSION
  5
252
330
1F
100
AcDbEntity
  8
DIMS
100
AcDbDimension
  2
_D_7
 10
1.4997270853
 20
16.6717636236
 30
0.0
 11
8.9522097992
 21
16.6717636236
 31
0.0
 70
   160
  1
<>
  3
SLDDIMSTYLE1
100
AcDbAlignedDimension
 13
40.2497557442
 23
15.7569509593
 33
0.0
 14
1.4997270853
 24
20.1970509593
 34
0.0
 50
0.0
100
AcDbRotatedDimension
  0
DIMENSION
  5
267
330
1F
100
AcDbEntity
  8
DIMS
100
AcDbDimension
  2
_D_8
 10
0.8747270853
 20
24.0631926916
 30
0.0
 11
7.8052606396
 21
24.0631926916
 31
0.0
 70
   160
  1
<>
  3
SLDDIMSTYLE1
100
AcDbAlignedDimension
 13
15.5309770853
 23
21.6970509593
 33
0.0
 14
0.8747270853
 24
20.1970509593
 34
0.0
100
AcDbRotatedDimension
  0
DIMENSION
  5
27D
330
1F
100
AcDbEntity
  8
DIMS
100
AcDbDimension
  2
_D_9
 10
19.5309770853
 20
24.0631926916
 30
0.0
 11
17.4147601541
 21
24.0631926916
 31
0.0
 70
   160
  1
<>
  3
SLDDIMSTYLE2
100
AcDbAlignedDimension
 13
15.5309770853
 23
21.6970509593
 33
0.0
 14
19.5309770853
 24
21.6970509593
 34
0.0
100
AcDbRotatedDimension
  0
DIMENSION
  5
28F
330
1F
100
AcDbEntity
  8
DIMS
100
AcDbDimension
  2
_D_10
 10
23.5309770853
 20
24.0631926916
 30
0.0
 11
21.8064460555
 21
24.0631926916
 31
0.0
 70
   160
  1
<>
  3
SLDDIMSTYLE2
100
AcDbAlignedDimension
 13
19.5309770853
 23
21.6970509593
 33
0.0
 14
23.5309770853
 24
21.6970509593
 34
0.0
100
AcDbRotatedDimension
  0
DIMENSION
  5
2A1
330
1F
100
AcDbEntity
  8
DIMS
100
AcDbDimension
  2
_D_11
 10
17.6240938887
 20
20.1189259593
 30
0.0
 11
17.6240938887
 21
20.8920125315
 31
0.0
 70
   160
  1
<>
  3
SLDDIMSTYLE3
100
AcDbAlignedDimension
 13
19.5309770853
 23
21.6970509593
 33
0.0
 14
14.5297270853
 24
20.1189259593
 34
0.0
 50
90.0
100
AcDbRotatedDimension
  0
DIMENSION
  5
2B7
330
1F
100
AcDbEntity
  8
DIMS
100
AcDbDimension
  2
_D_12
 10
16.0395412142
 20
21.1458136903
 30
0.0
 11
13.5609199248
 21
22.8112138506
 31
0.0
 70
   163
  1
<>
  3
SLDDIMSTYLE4
100
AcDbDiametricDimension
 15
15.0224129564
 25
22.2482882284
 35
0.0
 40
0.0
  0
DIMENSION
  5
2CC
330
1F
100
AcDbEntity
  8
DIMS
100
AcDbDimension
  2
_D_13
 10
40.2184770853
 20
24.0631926916
 30
0.0
 11
32.8409891354
 21
24.0631926916
 31
0.0
 70
   160
  1
<>
  3
SLDDIMSTYLE1
100
AcDbAlignedDimension
 13
23.5309770853
 23
21.6970509593
 33
0.0
 14
40.2184770853
 24
21.9470509593
 34
0.0
100
AcDbRotatedDimension
  0
DIMENSION
  5
2E2
330
1F
100
AcDbEntity
  8
DIMS
100
AcDbDimension
  2
_D_14
 10
38.5655970897
 20
5.7571184019
 30
0.0
 11
37.2826545651
 21
6.101554737
 31
0.0
 70
   164
  1
<>
  3
SLDDIMSTYLE5
100
AcDbRadialDimension
 15
40.1394414303
 25
4.149165047
 35
0.0
 40
0.0
  0
DIMENSION
  5
2F6
330
1F
100
AcDbEntity
  8
DIMS
100
AcDbDimension
  2
_D_15
 10
3.1247270853
 20
5.6970509593
 30
0.0
 11
5.4057404677
 21
6.764069074
 31
0.0
 70
   164
  1
<>
  3
SLDDIMSTYLE5
100
AcDbRadialDimension
 15
1.8615676762
 25
4.6747724712
 35
0.0
 40
0.0
  0
DIMENSION
  5
309
330
1F
100
AcDbEntity
  8
DIMS
100
AcDbDimension
  2
_D_16
 10
38.9218830174
 20
22.4470509593
 30
0.0
 11
38.9218830174
 21
23.1385624985
 31
0.0
 70
   160
  1
<>
  3
SLDDIMSTYLE3
100
AcDbAlignedDimension
 13
40.2184770853
 23
21.9470509593
 33
0.0
 14
34.119463324
 24
22.4470509593
 34
0.0
 50
90.0
100
AcDbRotatedDimension
  0
INSERT
  5
324
102
{ACAD_REACTORS
330
326
102
}
330
1F
100
AcDbEntity
  8
NOTES
100
AcDbBlockReference
  2
SW_NOTE_0
 10
30.821786862
 20
6.2202378625
 30
0.0
  0
LEADER
  5
326
330
1F
100
AcDbEntity
  8
NOTES
100
AcDbLeader
  3
SLDDIMSTYLE6
 73
     2
 76
     3
 10
32.1136926414
 20
3.4470509593
 30
0.0
 10
31.071786862
 20
6.2202378625
 30
0.0
 10
30.821786862
 20
6.2202378625
 30
0.0
340
324
1001
ACAD
1000
DSTYLE
1002
{
1070
     6
1000

1002
}
  0
INSERT
  5
32E
102
{ACAD_REACTORS
330
32F
330
330
102
}
330
1F
100
AcDbEntity
  8
NOTES
100
AcDbBlockReference
  2
SW_NOTE_1
 10
31.380865438
 20
8.3979075605
 30
0.0
  0
LEADER
  5
32F
330
1F
100
AcDbEntity
  8
NOTES
100
AcDbLeader
  3
SLDDIMSTYLE6
 73
     2
 76
     3
 10
39.633734097
 20
12.9470509593
 30
0.0
 10
31.630865438
 20
8.3979075605
 30
0.0
 10
31.380865438
 20
8.3979075605
 30
0.0
340
32E
1001
ACAD
1000
DSTYLE
1002
{
1070
     6
1000

1002
}
  0
LEADER
  5
330
330
1F
100
AcDbEntity
  8
NOTES
100
AcDbLeader
  3
SLDDIMSTYLE6
 73
     2
 76
     3
 10
19.7739770853
 20
4.428386982
 30
0.0
 10
29.3321571832
 20
8.3979075605
 30
0.0
 10
29.5821571832
 20
8.3979075605
 30
0.0
340
32E
212
-1.79870825481472
222
0.0
232
0.0
1001
ACAD
1000
DSTYLE
1002
{
1070
     6
1000

1002
}
  0
INSERT
  5
336
102
{ACAD_REACTORS
330
337
102
}
330
1F
100
AcDbEntity
  8
NOTES
100
AcDbBlockReference
  2
SW_NOTE_2
 10
9.6899068724
 20
6.0286654833
 30
0.0
  0
LEADER
  5
337
330
1F
100
AcDbEntity
  8
NOTES
100
AcDbLeader
  3
SLDDIMSTYLE6
 73
     2
 76
     3
 10
8.1289928889
 20
4.0720509593
 30
0.0
 10
9.4399068724
 20
6.0286654833
 30
0.0
 10
9.6899068724
 20
6.0286654833
 30
0.0
340
336
1001
ACAD
1000
DSTYLE
1002
{
1070
     6
1000

1002
}
  0
INSERT
  5
349
330
1F
100
AcDbEntity
  8
NOTES
100
AcDbBlockReference
  2
SW_NOTE_3
 10
16.0352900725
 20
11.6057342714
 30
0.0
  0
MTEXT
  5
34A
330
1F
100
AcDbEntity
  8
NOTES
100
AcDbMText
 10
36.3002577427
 20
4.7333973506
 30
0.0
 40
0.2083333333
 41
0.0
 71
     1
 72
     1
  1
REV_E  7/15
  7
SLDTEXTSTYLE0
  0
INSERT
  5
351
330
1F
100
AcDbEntity
  8
NOTES
100
AcDbBlockReference
  2
SW_NOTE_4
 10
14.217275039
 20
12.845494856
 30
0.0
  0
ENDSEC
  0
SECTION
  2
OBJECTS
  0
DICTIONARY
  5
C
330
0
100
AcDbDictionary
  3
ACAD_GROUP
350
D
  3
ACAD_MLINESTYLE
350
17
1001
ACAD
1000
TREAT_AS_HARD
1070
     0
  0
DICTIONARY
  5
D
102
{ACAD_REACTORS
330
C
102
}
330
C
100
AcDbDictionary
1001
ACAD
1000
TREAT_AS_HARD
1070
     0
  0
DICTIONARY
  5
17
102
{ACAD_REACTORS
330
C
102
}
330
C
100
AcDbDictionary
  3
STANDARD
350
18
1001
ACAD
1000
TREAT_AS_HARD
1070
     0
  0
MLINESTYLE
  5
18
102
{ACAD_REACTORS
330
17
102
}
330
17
100
AcDbMlineStyle
  2
Standard
 70
     0
  3

 62
   256
 51
90.0
 52
90.0
 71
     2
 49
0.5
 62
   256
  6
BYLAYER
 49
-0.5
 62
   256
  6
BYLAYER
  0
ENDSEC
  0
EOF
