  0
SECTION
  2
HEADER
  9
$ACADVER
  1
AC1012
  9
$DWGCODEPAGE
  3
ansi_1252
  9
$INSBASE
 10
0.0
 20
0.0
 30
0.0
  9
$EXTMIN
 10
0.0
 20
0.0
 30
0.0
  9
$EXTMAX
 10
40.0
 20
28.0
 30
0.0
  9
$LIMMIN
 10
0.0
 20
0.0
  9
$LIMMAX
 10
40.0
 20
28.0
  9
$ORTHOMODE
 70
     0
  9
$REGENMODE
 70
     1
  9
$FILLMODE
 70
     1
  9
$QTEXTMODE
 70
     0
  9
$MIRRTEXT
 70
     1
  9
$DRAGMODE
 70
     2
  9
$LTSCALE
 40
1.0
  9
$OSMODE
 70
    37
  9
$ATTMODE
 70
     1
  9
$TEXTSIZE
 40
0.1944444444
  9
$TRACEWID
 40
0.05
  9
$TEXTSTYLE
  7
STANDARD
  9
$CLAYER
  8
0
  9
$CELTYPE
  6
BYLAYER
  9
$CECOLOR
 62
   256
  9
$CELTSCALE
 40
1.0
  9
$DELOBJ
 70
     1
  9
$DISPSILH
 70
     0
  9
$DIMSCALE
 40
1.0
  9
$DIMASZ
 40
0.2022298177
  9
$DIMEXO
 40
0.05
  9
$DIMDLI
 40
0.38
  9
$DIMRND
 40
0.0
  9
$DIMDLE
 40
0.0
  9
$DIMEXE
 40
0.125
  9
$DIMTP
 40
0.0
  9
$DIMTM
 40
0.0
  9
$DIMTXT
 40
0.4166666667
  9
$DIMCEN
 40
0.09
  9
$DIMTSZ
 40
0.0
  9
$DIMTOL
 70
     0
  9
$DIMLIM
 70
     0
  9
$DIMTIH
 70
     1
  9
$DIMTOH
 70
     1
  9
$DIMSE1
 70
     0
  9
$DIMSE2
 70
     0
  9
$DIMTAD
 70
     0
  9
$DIMZIN
 70
     0
  9
$DIMBLK
  1

  9
$DIMASO
 70
     1
  9
$DIMSHO
 70
     1
  9
$DIMPOST
  1

  9
$DIMAPOST
  1

  9
$DIMALT
 70
     0
  9
$DIMALTD
 70
     2
  9
$DIMALTF
 40
25.4
  9
$DIMLFAC
 40
1.0
  9
$DIMTOFL
 70
     0
  9
$DIMTVP
 40
0.0
  9
$DIMTIX
 70
     0
  9
$DIMSOXD
 70
     0
  9
$DIMSAH
 70
     0
  9
$DIMBLK1
  1

  9
$DIMBLK2
  1

  9
$DIMSTYLE
  2
STANDARD
  9
$DIMCLRD
 70
     0
  9
$DIMCLRE
 70
     0
  9
$DIMCLRT
 70
     0
  9
$DIMTFAC
 40
1.0
  9
$DIMGAP
 40
0.06
  9
$DIMJUST
 70
     0
  9
$DIMSD1
 70
     0
  9
$DIMSD2
 70
     0
  9
$DIMTOLJ
 70
     1
  9
$DIMTZIN
 70
     0
  9
$DIMALTZ
 70
     0
  9
$DIMALTTZ
 70
     0
  9
$DIMFIT
 70
     3
  9
$DIMUPT
 70
     0
  9
$DIMUNIT
 70
     2
  9
$DIMDEC
 70
     3
  9
$DIMTDEC
 70
     3
  9
$DIMALTU
 70
     2
  9
$DIMALTTD
 70
     2
  9
$DIMTXSTY
  7
STANDARD
  9
$DIMAUNIT
 70
     0
  9
$LUNITS
 70
     2
  9
$LUPREC
 70
     3
  9
$SKETCHINC
 40
0.1
  9
$FILLETRAD
 40
0.5
  9
$AUNITS
 70
     0
  9
$AUPREC
 70
     1
  9
$MENU
  1
.
  9
$ELEVATION
 40
0.0
  9
$PELEVATION
 40
0.0
  9
$THICKNESS
 40
0.0
  9
$LIMCHECK
 70
     0
  9
$CHAMFERA
 40
0.5
  9
$CHAMFERB
 40
0.5
  9
$CHAMFERC
 40
1.0
  9
$CHAMFERD
 40
0.0
  9
$SKPOLY
 70
     0
  9
$TDCREATE
 40
2457617.470888055
  9
$TDUPDATE
 40
2457617.4708886
  9
$TDINDWG
 40
0.0000000116
  9
$TDUSRTIMER
 40
0.0000000116
  9
$USRTIMER
 70
     1
  9
$ANGBASE
 50
0.0
  9
$ANGDIR
 70
     0
  9
$PDMODE
 70
     0
  9
$PDSIZE
 40
-1.0
  9
$PLINEWID
 40
0.0
  9
$COORDS
 70
     1
  9
$SPLFRAME
 70
     0
  9
$SPLINETYPE
 70
     6
  9
$SPLINESEGS
 70
     8
  9
$ATTDIA
 70
     0
  9
$ATTREQ
 70
     1
  9
$HANDLING
 70
     1
  9
$HANDSEED
  5
18E
  9
$SURFTAB1
 70
     6
  9
$SURFTAB2
 70
     6
  9
$SURFTYPE
 70
     6
  9
$SURFU
 70
     6
  9
$SURFV
 70
     6
  9
$UCSNAME
  2

  9
$UCSORG
 10
0.0
 20
0.0
 30
0.0
  9
$UCSXDIR
 10
1.0
 20
0.0
 30
0.0
  9
$UCSYDIR
 10
0.0
 20
1.0
 30
0.0
  9
$PUCSNAME
  2

  9
$PUCSORG
 10
0.0
 20
0.0
 30
0.0
  9
$PUCSXDIR
 10
1.0
 20
0.0
 30
0.0
  9
$PUCSYDIR
 10
0.0
 20
1.0
 30
0.0
  9
$USERI1
 70
     0
  9
$USERI2
 70
     0
  9
$USERI3
 70
     0
  9
$USERI4
 70
     0
  9
$USERI5
 70
     0
  9
$USERR1
 40
0.0
  9
$USERR2
 40
0.0
  9
$USERR3
 40
0.0
  9
$USERR4
 40
0.0
  9
$USERR5
 40
0.0
  9
$WORLDVIEW
 70
     1
  9
$SHADEDGE
 70
     3
  9
$SHADEDIF
 70
    70
  9
$TILEMODE
 70
     1
  9
$MAXACTVP
 70
    64
  9
$PINSBASE
 10
0.0
 20
0.0
 30
0.0
  9
$PLIMCHECK
 70
     0
  9
$PEXTMIN
 10
1.0000000000E+20
 20
1.0000000000E+20
 30
1.0000000000E+20
  9
$PEXTMAX
 10
-1.0000000000E+20
 20
-1.0000000000E+20
 30
-1.0000000000E+20
  9
$PLIMMIN
 10
0.0
 20
0.0
  9
$PLIMMAX
 10
12.0
 20
9.0
  9
$UNITMODE
 70
     0
  9
$VISRETAIN
 70
     1
  9
$PLINEGEN
 70
     0
  9
$PSLTSCALE
 70
     1
  9
$TREEDEPTH
 70
  3020
  9
$PICKSTYLE
 70
     1
  9
$CMLSTYLE
  2
STANDARD
  9
$CMLJUST
 70
     0
  9
$CMLSCALE
 40
1.0
  9
$SAVEIMAGES
 70
     1
  0
ENDSEC
  0
SECTION
  2
CLASSES
  0
CLASS
  1
ACDBDICTIONARYWDFLT
  2
AcDbDictionaryWithDefault
  3
ObjectDBX Classes
 90
    32768
280
     0
281
     0
  0
CLASS
  1
VISUALSTYLE
  2
AcDbVisualStyle
  3
ObjectDBX Classes
 90
     4095
280
     0
281
     0
  0
CLASS
  1
MATERIAL
  2
AcDbMaterial
  3
ObjectDBX Classes
 90
     1153
280
     0
281
     0
  0
CLASS
  1
XRECORD
  2
AcDbXrecord
  3
AutoCAD 2000
 90
    32768
280
     0
281
     0
  0
ENDSEC
  0
SECTION
  2
TABLES
  0
TABLE
  2
VPORT
  5
8
330
0
100
AcDbSymbolTable
 70
     1
  0
VPORT
  5
29
330
8
100
AcDbSymbolTableRecord
100
AcDbViewportTableRecord
  2
*ACTIVE
 70
     0
 10
0.0
 20
0.0
 11
1.0
 21
1.0
 12
20.0
 22
14.0
 13
0.0
 23
0.0
 14
0.5
 24
0.5
 15
0.5
 25
0.5
 16
0.0
 26
0.0
 36
1.0
 17
0.0
 27
0.0
 37
0.0
 40
28.0
 41
1.4285714286
 42
50.0
 43
0.0
 44
0.0
 50
0.0
 51
0.0
 71
     0
 72
  2000
 73
     1
 74
     3
 75
     0
 76
     0
 77
     0
 78
     0
  0
ENDTAB
  0
TABLE
  2
LTYPE
  5
5
330
0
100
AcDbSymbolTable
 70
     6
  0
LTYPE
  5
14
330
5
100
AcDbSymbolTableRecord
100
AcDbLinetypeTableRecord
  2
BYBLOCK
 70
     0
  3

 72
    65
 73
     0
 40
0.0
  0
LTYPE
  5
15
330
5
100
AcDbSymbolTableRecord
100
AcDbLinetypeTableRecord
  2
BYLAYER
 70
     0
  3

 72
    65
 73
     0
 40
0.0
  0
LTYPE
  5
16
330
5
100
AcDbSymbolTableRecord
100
AcDbLinetypeTableRecord
  2
CONTINUOUS
 70
     0
  3
Solid line
 72
    65
 73
     0
 40
0.0
  0
LTYPE
  5
3F
330
5
100
AcDbSymbolTableRecord
100
AcDbLinetypeTableRecord
  2
HIDDEN
 70
     0
  3
Hidden __ __ __ __ __ __ __ __ __ __ __ __ __ __
 72
    65
 73
     2
 40
0.075
 49
0.05
 74
     0
 49
-0.025
 74
     0
  0
LTYPE
  5
40
330
5
100
AcDbSymbolTableRecord
100
AcDbLinetypeTableRecord
  2
PHANTOM
 70
     0
  3
Phantom ______  __  __  ______  __  __  ______
 72
    65
 73
     6
 40
0.5
 49
0.25
 74
     0
 49
-0.05
 74
     0
 49
0.05
 74
     0
 49
-0.05
 74
     0
 49
0.05
 74
     0
 49
-0.05
 74
     0
  0
LTYPE
  5
41
330
5
100
AcDbSymbolTableRecord
100
AcDbLinetypeTableRecord
  2
CENTER
 70
     0
  3
Center ____ _ ____ _ ____ _ ____ _ ____ _ ____
 72
    65
 73
     4
 40
0.4
 49
0.25
 74
     0
 49
-0.05
 74
     0
 49
0.05
 74
     0
 49
-0.05
 74
     0
  0
LTYPE
  5
42
330
5
100
AcDbSymbolTableRecord
100
AcDbLinetypeTableRecord
  2
CENTERX2
 70
     0
  3
Center (2x) ________  __  ________  __  _____
 72
    65
 73
     4
 40
0.8
 49
0.5
 74
     0
 49
-0.1
 74
     0
 49
0.1
 74
     0
 49
-0.1
 74
     0
  0
LTYPE
  5
43
330
5
100
AcDbSymbolTableRecord
100
AcDbLinetypeTableRecord
  2
DOT2
 70
     0
  3
Dot (.5x) ........................................
 72
    65
 73
     2
 40
0.025
 49
0.0
 74
     0
 49
-0.025
 74
     0
  0
ENDTAB
  0
TABLE
  2
LAYER
  5
2
330
0
100
AcDbSymbolTable
 70
    10
  0
LAYER
  5
10
330
2
100
AcDbSymbolTableRecord
100
AcDbLayerTableRecord
  2
0
 70
     0
 62
     7
  6
CONTINUOUS
  0
LAYER
  5
44
330
2
100
AcDbSymbolTableRecord
100
AcDbLayerTableRecord
  2
SLD-0
 70
     0
 62
   179
  6
CONTINUOUS
  0
LAYER
  5
45
330
2
100
AcDbSymbolTableRecord
100
AcDbLayerTableRecord
  2
OBJECTS
 70
     0
 62
     5
  6
CONTINUOUS
  0
LAYER
  5
46
330
2
100
AcDbSymbolTableRecord
100
AcDbLayerTableRecord
  2
DIMS
 70
     0
 62
     1
  6
CONTINUOUS
  0
LAYER
  5
47
330
2
100
AcDbSymbolTableRecord
100
AcDbLayerTableRecord
  2
NOTES
 70
     0
 62
     7
  6
CONTINUOUS
  0
LAYER
  5
48
330
2
100
AcDbSymbolTableRecord
100
AcDbLayerTableRecord
  2
IMAGES
 70
     0
 62
     7
  6
CONTINUOUS
  0
LAYER
  5
49
330
2
100
AcDbSymbolTableRecord
100
AcDbLayerTableRecord
  2
CENTERLINES
 70
     0
 62
     7
  6
HIDDEN
  0
LAYER
  5
4A
330
2
100
AcDbSymbolTableRecord
100
AcDbLayerTableRecord
  2
BLOCKS
 70
     0
 62
    16
  6
CONTINUOUS
  0
LAYER
  5
4B
330
2
100
AcDbSymbolTableRecord
100
AcDbLayerTableRecord
  2
1
 70
     0
 62
   179
  6
CONTINUOUS
  0
LAYER
  5
4C
330
2
100
AcDbSymbolTableRecord
100
AcDbLayerTableRecord
  2
SLD-DEFPOINTS
 70
     0
 62
   179
  6
CONTINUOUS
  0
ENDTAB
  0
TABLE
  2
STYLE
  5
3
330
0
100
AcDbSymbolTable
 70
     2
  0
STYLE
  5
11
330
3
100
AcDbSymbolTableRecord
100
AcDbTextStyleTableRecord
  2
STANDARD
 70
     0
 40
0.0
 41
1.0
 50
0.0
 71
     0
 42
0.1944444444
  3
txt
  4

  0
STYLE
  5
DF
330
3
100
AcDbSymbolTableRecord
100
AcDbTextStyleTableRecord
  2
SLDTEXTSTYLE0
 70
     0
 40
0.0
 41
0.605
 50
0.0
 71
     0
 42
0.2
  3
TXT
  4

  0
ENDTAB
  0
TABLE
  2
VIEW
  5
6
330
0
100
AcDbSymbolTable
 70
     0
  0
ENDTAB
  0
TABLE
  2
UCS
  5
7
330
0
100
AcDbSymbolTable
 70
     0
  0
ENDTAB
  0
TABLE
  2
APPID
  5
9
330
0
100
AcDbSymbolTable
 70
     1
  0
APPID
  5
12
330
9
100
AcDbSymbolTableRecord
100
AcDbRegAppTableRecord
  2
ACAD
 70
     0
  0
ENDTAB
  0
TABLE
  2
DIMSTYLE
  5
A
330
0
100
AcDbSymbolTable
 70
     5
  0
DIMSTYLE
105
27
330
A
100
AcDbSymbolTableRecord
100
AcDbDimStyleTableRecord
  2
STANDARD
 70
     0
  3

  4

  5

  6

  7

 40
1.0
 41
0.18
 42
0.0625
 43
0.38
 44
0.18
 45
0.0
 46
0.0
 47
0.0
 48
0.0
140
0.18
141
0.09
142
0.0
143
25.4
144
1.0
145
0.0
146
1.0
147
0.09
 71
     0
 72
     0
 73
     1
 74
     1
 75
     0
 76
     0
 77
     0
 78
     0
170
     0
171
     2
172
     0
173
     0
174
     0
175
     0
176
     0
177
     0
178
     0
270
     2
271
     4
272
     4
273
     2
274
     2
340
11
275
     0
280
     0
281
     0
282
     0
283
     1
284
     0
285
     0
286
     0
287
     3
288
     0
  0
DIMSTYLE
105
103
102
{ACAD_REACTORS
330
102
330
12B
102
}
330
A
100
AcDbSymbolTableRecord
100
AcDbDimStyleTableRecord
  2
SLDDIMSTYLE0
 70
     0
  3

  4

  5

  6

  7

 40
1.0
 41
0.2022298177
 42
0.0625
 43
0.38
 44
0.0
 45
0.000000001
 46
0.0
 47
0.0
 48
0.0
140
0.3033447266
141
0.0
142
0.0
143
25.4
144
1.0
145
0.0
146
1.0
147
0.0758361816
 71
     0
 72
     0
 73
     1
 74
     1
 75
     0
 76
     0
 77
     0
 78
    12
170
     1
171
     0
172
     0
173
     1
174
     0
175
     0
176
     0
177
     0
178
     0
270
     5
271
     3
272
     3
273
     2
274
     0
340
DF
275
     0
280
     0
281
     0
282
     0
283
     1
284
    12
285
     0
286
     0
287
     3
288
     0
  0
DIMSTYLE
105
117
102
{ACAD_REACTORS
330
116
330
151
102
}
330
A
100
AcDbSymbolTableRecord
100
AcDbDimStyleTableRecord
  2
SLDDIMSTYLE1
 70
     0
  3

  4

  5

  6

  7

 40
1.0
 41
0.2022298177
 42
0.0625
 43
0.38
 44
0.0
 45
0.000000001
 46
0.0
 47
0.0
 48
0.0
140
0.3033447266
141
0.09
142
0.0
143
25.4
144
1.0
145
0.0
146
1.0
147
0.0758361816
 71
     0
 72
     0
 73
     1
 74
     1
 75
     0
 76
     0
 77
     0
 78
    12
170
     1
171
     0
172
     0
173
     1
174
     0
175
     0
176
     0
177
     0
178
     0
270
     5
271
     6
272
     3
273
     2
274
     0
340
DF
275
     0
280
     0
281
     0
282
     0
283
     1
284
    12
285
     0
286
     0
287
     3
288
     0
  0
DIMSTYLE
105
13F
102
{ACAD_REACTORS
330
13E
102
}
330
A
100
AcDbSymbolTableRecord
100
AcDbDimStyleTableRecord
  2
SLDDIMSTYLE2
 70
     0
  3

  4

  5

  6

  7

 40
1.0
 41
0.2022298177
 42
0.0625
 43
0.38
 44
0.0
 45
0.000000001
 46
0.0
 47
0.0
 48
0.0
140
0.3033447266
141
0.09
142
0.0
143
25.4
144
1.0
145
0.0
146
1.0
147
0.0758361816
 71
     0
 72
     0
 73
     1
 74
     1
 75
     0
 76
     0
 77
     0
 78
    12
170
     1
171
     0
172
     0
173
     1
174
     0
175
     0
176
     0
177
     0
178
     0
270
     5
271
     3
272
     3
273
     2
274
     0
340
DF
275
     0
280
     0
281
     0
282
     0
283
     1
284
    12
285
     0
286
     0
287
     3
288
     0
  0
DIMSTYLE
105
181
330
A
100
AcDbSymbolTableRecord
100
AcDbDimStyleTableRecord
  2
SLDDIMSTYLE3
 70
     0
  3

  4

  5

  6

  7

 40
1.0
 41
0.2022298177
 42
0.0625
 43
0.38
 44
0.0
 45
0.000000001
 46
0.0
 47
0.0
 48
0.0
140
0.0
141
0.09
142
0.0
143
25.4
144
1.0
145
0.0
146
0.2022298177
147
0.0
 71
     0
 72
     0
 73
     1
 74
     1
 75
     0
 76
     0
 77
     0
 78
     0
170
     0
171
     2
172
     0
173
     1
174
     0
175
     0
176
     0
177
     0
178
     0
270
     5
271
     0
272
     0
273
     2
274
     2
340
11
275
     0
280
     0
281
     0
282
     0
283
     1
284
     0
285
     0
286
     0
287
     3
288
     0
  0
ENDTAB
  0
TABLE
  2
BLOCK_RECORD
  5
1
330
0
100
AcDbSymbolTable
 70
    12
  0
BLOCK_RECORD
  5
1F
330
1
100
AcDbSymbolTableRecord
100
AcDbBlockTableRecord
  2
*MODEL_SPACE
  0
BLOCK_RECORD
  5
1B
330
1
100
AcDbSymbolTableRecord
100
AcDbBlockTableRecord
  2
*PAPER_SPACE
  0
BLOCK_RECORD
  5
23
330
1
100
AcDbSymbolTableRecord
100
AcDbBlockTableRecord
  2
*PAPER_SPACE0
  0
BLOCK_RECORD
  5
4D
330
1
100
AcDbSymbolTableRecord
100
AcDbBlockTableRecord
  2
REVEAL-__500
  0
BLOCK_RECORD
  5
CF
330
1
100
AcDbSymbolTableRecord
100
AcDbBlockTableRecord
  2
SW_BLOCK_DIMENSION_0
  0
BLOCK_RECORD
  5
104
330
1
100
AcDbSymbolTableRecord
100
AcDbBlockTableRecord
  2
_D
  0
BLOCK_RECORD
  5
118
330
1
100
AcDbSymbolTableRecord
100
AcDbBlockTableRecord
  2
_D_1
  0
BLOCK_RECORD
  5
12C
330
1
100
AcDbSymbolTableRecord
100
AcDbBlockTableRecord
  2
_D_2
  0
BLOCK_RECORD
  5
140
330
1
100
AcDbSymbolTableRecord
100
AcDbBlockTableRecord
  2
_D_3
  0
BLOCK_RECORD
  5
152
330
1
100
AcDbSymbolTableRecord
100
AcDbBlockTableRecord
  2
_D_4
  0
BLOCK_RECORD
  5
167
330
1
100
AcDbSymbolTableRecord
100
AcDbBlockTableRecord
  2
SW_NOTE_0
  0
BLOCK_RECORD
  5
174
330
1
100
AcDbSymbolTableRecord
100
AcDbBlockTableRecord
  2
SW_NOTE_1
  0
BLOCK_RECORD
  5
17B
330
1
100
AcDbSymbolTableRecord
100
AcDbBlockTableRecord
  2
SW_NOTE_2
  0
BLOCK_RECORD
  5
183
330
1
100
AcDbSymbolTableRecord
100
AcDbBlockTableRecord
  2
SW_NOTE_3
  0
ENDTAB
  0
ENDSEC
  0
SECTION
  2
BLOCKS
  0
BLOCK
  5
20
330
1F
100
AcDbEntity
  8
0
100
AcDbBlockBegin
  2
*MODEL_SPACE
 70
     0
 10
0.0
 20
0.0
 30
0.0
  3
*MODEL_SPACE
  1

  0
ENDBLK
  5
21
330
1F
100
AcDbEntity
  8
0
100
AcDbBlockEnd
  0
BLOCK
  5
1C
330
1B
100
AcDbEntity
 67
     1
  8
0
100
AcDbBlockBegin
  2
*PAPER_SPACE
 70
     0
 10
0.0
 20
0.0
 30
0.0
  3
*PAPER_SPACE
  1

  0
ENDBLK
  5
1D
330
1B
100
AcDbEntity
 67
     1
  8
0
100
AcDbBlockEnd
  0
BLOCK
  5
24
330
23
100
AcDbEntity
  8
0
100
AcDbBlockBegin
  2
*PAPER_SPACE0
 70
     0
 10
0.0
 20
0.0
 30
0.0
  3
*PAPER_SPACE0
  1

  0
ENDBLK
  5
25
330
23
100
AcDbEntity
  8
0
100
AcDbBlockEnd
  0
BLOCK
  5
4E
330
4D
100
AcDbEntity
  8
0
100
AcDbBlockBegin
  2
REVEAL-__500
 70
     0
 10
0.0
 20
0.0
 30
0.0
  3
REVEAL-__500
  1

  0
ARC
  5
50
330
4D
100
AcDbEntity
  8
BLOCKS
100
AcDbCircle
 10
20.1601934329
 20
28.8878838846
 30
0.0
 40
0.2338576391325233
100
AcDbArc
 50
0.0
 51
90.0
  0
ARC
  5
51
330
4D
100
AcDbEntity
  8
BLOCKS
100
AcDbCircle
 10
19.8280715192
 20
29.4726468145
 30
0.0
 40
0.0659795528056719
100
AcDbArc
 50
0.0
 51
90.0
  0
ARC
  5
52
330
4D
100
AcDbEntity
  8
BLOCKS
100
AcDbCircle
 10
19.0470381676
 20
28.990848696
 30
0.0
 40
0.0881257319589152
100
AcDbArc
 50
200.9822712638
 51
339.0177287362
  0
ARC
  5
53
330
4D
100
AcDbEntity
  8
BLOCKS
100
AcDbCircle
 10
20.1601934329
 20
28.8878838846
 30
0.0
 40
0.1878262552218324
100
AcDbArc
 50
0.0
 51
90.0
  0
LINE
  5
54
330
4D
100
AcDbEntity
  8
BLOCKS
100
AcDbLine
 10
19.8280715192
 20
29.5386263673
 30
0.0
 11
18.2509355515
 21
29.5386263673
 31
0.0
  0
LINE
  5
55
330
4D
100
AcDbEntity
  8
BLOCKS
100
AcDbLine
 10
18.2806192052
 20
29.1434426864
 30
0.0
 11
19.894051072
 21
29.1434426864
 31
0.0
  0
LINE
  5
56
330
4D
100
AcDbEntity
  8
BLOCKS
100
AcDbLine
 10
19.3470309437
 20
29.1217415238
 30
0.0
 11
20.1601934329
 21
29.1217415238
 31
0.0
  0
LINE
  5
57
330
4D
100
AcDbEntity
  8
BLOCKS
100
AcDbLine
 10
20.394051072
 20
28.8878838846
 30
0.0
 11
20.394051072
 21
28.4971795949
 31
0.0
  0
LINE
  5
58
330
4D
100
AcDbEntity
  8
BLOCKS
100
AcDbLine
 10
20.394051072
 20
28.4971795949
 30
0.0
 11
20.3480196881
 21
28.4971795949
 31
0.0
  0
LINE
  5
59
330
4D
100
AcDbEntity
  8
BLOCKS
100
AcDbLine
 10
20.3480196881
 20
28.4971795949
 30
0.0
 11
20.3480196881
 21
28.8878838846
 31
0.0
  0
LINE
  5
5A
330
4D
100
AcDbEntity
  8
BLOCKS
100
AcDbLine
 10
20.1601934329
 20
29.0757101398
 30
0.0
 11
19.3470309437
 21
29.0757101398
 31
0.0
  0
LINE
  5
5B
330
4D
100
AcDbEntity
  8
BLOCKS
100
AcDbLine
 10
19.3470309437
 20
29.0757101398
 30
0.0
 11
19.3470309437
 21
29.1217415238
 31
0.0
  0
LINE
  5
5C
330
4D
100
AcDbEntity
  8
BLOCKS
100
AcDbLine
 10
19.679261078
 20
29.0223488565
 30
0.0
 11
19.7319208682
 21
29.073015856
 31
0.0
  0
LINE
  5
5D
330
4D
100
AcDbEntity
  8
BLOCKS
100
AcDbLine
 10
19.7319208682
 20
29.073015856
 30
0.0
 11
19.7745573648
 21
29.0287024176
 31
0.0
  0
LINE
  5
5E
330
4D
100
AcDbEntity
  8
BLOCKS
100
AcDbLine
 10
19.7745573648
 20
29.0287024176
 30
0.0
 11
19.705650009
 21
28.9624027047
 31
0.0
  0
LINE
  5
5F
330
4D
100
AcDbEntity
  8
BLOCKS
100
AcDbLine
 10
18.4381035755
 20
29.0888229672
 30
0.0
 11
18.385550816
 21
29.1434426864
 31
0.0
  0
LINE
  5
60
330
4D
100
AcDbEntity
  8
BLOCKS
100
AcDbLine
 10
18.385550816
 20
29.1434426864
 30
0.0
 11
18.3431444562
 21
29.1026410993
 31
0.0
  0
LINE
  5
61
330
4D
100
AcDbEntity
  8
BLOCKS
100
AcDbLine
 10
18.3431444562
 20
29.1026410993
 30
0.0
 11
18.4052557657
 21
29.0380868815
 31
0.0
  0
LINE
  5
62
330
4D
100
AcDbEntity
  8
BLOCKS
100
AcDbLine
 10
18.4381035755
 20
29.0888229672
 30
0.0
 11
19.679261078
 21
29.0223488565
 31
0.0
  0
LINE
  5
63
330
4D
100
AcDbEntity
  8
BLOCKS
100
AcDbLine
 10
19.705650009
 20
28.9624027047
 30
0.0
 11
18.4052557657
 21
29.0380868815
 31
0.0
  0
LINE
  5
64
330
4D
100
AcDbEntity
  8
BLOCKS
100
AcDbLine
 10
19.1283677378
 20
29.0518536895
 30
0.0
 11
19.1283677378
 21
28.9960010797
 31
0.0
  0
LINE
  5
65
330
4D
100
AcDbEntity
  8
BLOCKS
100
AcDbLine
 10
18.9737480593
 20
29.0601348348
 30
0.0
 11
18.9737480593
 21
29.0050000915
 31
0.0
  0
LINE
  5
66
330
4D
100
AcDbEntity
  8
BLOCKS
100
AcDbLine
 10
18.964755941
 20
28.9592927168
 30
0.0
 11
19.1293203942
 21
28.9592927168
 31
0.0
  0
LINE
  5
67
330
4D
100
AcDbEntity
  8
BLOCKS
100
AcDbLine
 10
19.0095275609
 20
29.3495924534
 30
0.0
 11
19.0095275609
 21
28.9592927168
 31
0.0
  0
LINE
  5
68
330
4D
100
AcDbEntity
  8
BLOCKS
100
AcDbLine
 10
19.0864194327
 20
29.3495924534
 30
0.0
 11
19.0864194327
 21
28.9592927168
 31
0.0
  0
LINE
  5
69
330
4D
100
AcDbEntity
  8
BLOCKS
100
AcDbLine
 10
18.9467524826
 20
29.0033177842
 30
0.0
 11
19.1591684741
 21
28.9909549723
 31
0.0
  0
LINE
  5
6A
330
4D
100
AcDbEntity
  8
BLOCKS
100
AcDbLine
 10
19.0095275609
 20
29.3495924534
 30
0.0
 11
19.0474925407
 21
29.4047818344
 31
0.0
  0
LINE
  5
6B
330
4D
100
AcDbEntity
  8
BLOCKS
100
AcDbLine
 10
19.0474925407
 20
29.4047818344
 30
0.0
 11
19.0864194327
 21
29.3495924534
 31
0.0
  0
LINE
  5
6C
330
4D
100
AcDbEntity
  8
BLOCKS
100
AcDbLine
 10
19.1572986604
 20
28.9588281114
 30
0.0
 11
18.9448826689
 21
28.9711909233
 31
0.0
  0
LINE
  5
6D
330
4D
100
AcDbEntity
  8
BLOCKS
100
AcDbLine
 10
19.1591684741
 20
28.9909549723
 30
0.0
 11
19.1572986604
 21
28.9588281114
 31
0.0
  0
LINE
  5
6E
330
4D
100
AcDbEntity
  8
BLOCKS
100
AcDbLine
 10
18.9467524826
 20
29.0033177842
 30
0.0
 11
18.9448826689
 21
28.9711909233
 31
0.0
  0
LINE
  5
6F
330
4D
100
AcDbEntity
  8
BLOCKS
100
AcDbLine
 10
19.1142839592
 20
29.1434426864
 30
0.0
 11
19.1142839592
 21
29.4238049236
 31
0.0
  0
LINE
  5
70
330
4D
100
AcDbEntity
  8
BLOCKS
100
AcDbLine
 10
19.1142839592
 20
29.4238049236
 30
0.0
 11
18.9877469673
 21
29.4238049236
 31
0.0
  0
LINE
  5
71
330
4D
100
AcDbEntity
  8
BLOCKS
100
AcDbLine
 10
18.9877469673
 20
29.4238049236
 30
0.0
 11
18.9877469673
 21
29.1434426864
 31
0.0
  0
LINE
  5
72
330
4D
100
AcDbEntity
  8
BLOCKS
  6
CONTINUOUS
100
AcDbLine
 10
19.894051072
 20
29.1434426864
 30
0.0
 11
19.894051072
 21
29.4726468145
 31
0.0
  0
LINE
  5
73
330
4D
100
AcDbEntity
  8
BLOCKS
100
AcDbLine
 10
19.3020232313
 20
29.1434426864
 30
0.0
 11
19.3470309437
 21
29.0987258318
 31
0.0
  0
LINE
  5
74
330
4D
100
AcDbEntity
  8
BLOCKS
100
AcDbLine
 10
19.894051072
 20
29.1434426864
 30
0.0
 11
19.9068063572
 21
29.1217415238
 31
0.0
  0
SPLINE
  5
75
330
4D
100
AcDbEntity
  8
BLOCKS
100
AcDbSpline
210
0.0
220
0.0
230
1.0
 70
     8
 71
     3
 72
     9
 73
     5
 74
     0
 42
0.00000001
 43
0.00000001
 12
1.0
 22
0.0
 32
0.0
 13
1.0
 23
0.0
 33
0.0
 40
0.0
 40
0.0
 40
0.0
 40
0.0
 40
0.5928291688347104
 40
1.0
 40
1.0
 40
1.0
 40
1.0
 10
18.28061920517429
 20
29.14344268635683
 30
0.0
 10
18.23604355296101
 20
29.22927712752978
 30
0.0
 10
18.31552651528452
 20
29.34850064146643
 30
0.0
 10
18.29741369383499
 20
29.50274888669875
 30
0.0
 10
18.25093555152442
 20
29.53862636728042
 30
0.0
  0
LINE
  5
76
330
4D
100
AcDbEntity
  8
BLOCKS
 62
    16
100
AcDbLine
 10
18.2853394197
 20
29.5106595711
 30
0.0
 11
18.3133062159
 21
29.5386263673
 31
0.0
  0
LINE
  5
77
330
4D
100
AcDbEntity
  8
BLOCKS
 62
    16
100
AcDbLine
 10
18.2988735511
 20
29.4358053548
 30
0.0
 11
18.3626792239
 21
29.4996110276
 31
0.0
  0
LINE
  5
78
330
4D
100
AcDbEntity
  8
BLOCKS
 62
    16
100
AcDbLine
 10
18.3737277674
 20
29.4222712234
 30
0.0
 11
18.484213202
 21
29.532756658
 31
0.0
  0
LINE
  5
79
330
4D
100
AcDbEntity
  8
BLOCKS
 62
    16
100
AcDbLine
 10
18.284928357
 20
29.3334718131
 30
0.0
 11
18.3295335936
 21
29.3780770496
 31
0.0
  0
LINE
  5
7A
330
4D
100
AcDbEntity
  8
BLOCKS
 62
    16
100
AcDbLine
 10
18.4952617454
 20
29.4554168538
 30
0.0
 11
18.5784712589
 21
29.5386263673
 31
0.0
  0
LINE
  5
7B
330
4D
100
AcDbEntity
  8
BLOCKS
 62
    16
100
AcDbLine
 10
18.340582137
 20
29.3007372454
 30
0.0
 11
18.4510675716
 21
29.41122268
 31
0.0
  0
LINE
  5
7C
330
4D
100
AcDbEntity
  8
BLOCKS
 62
    16
100
AcDbLine
 10
18.2618658043
 20
29.2220209127
 30
0.0
 11
18.2963879632
 21
29.2565430716
 31
0.0
  0
LINE
  5
7D
330
4D
100
AcDbEntity
  8
BLOCKS
 62
    16
100
AcDbLine
 10
18.6167957234
 20
29.4885624842
 30
0.0
 11
18.6668596065
 21
29.5386263673
 31
0.0
  0
LINE
  5
7E
330
4D
100
AcDbEntity
  8
BLOCKS
 62
    16
100
AcDbLine
 10
18.462116115
 20
29.3338828758
 30
0.0
 11
18.5726015496
 21
29.4443683103
 31
0.0
  0
LINE
  5
7F
330
4D
100
AcDbEntity
  8
BLOCKS
 62
    16
100
AcDbLine
 10
18.3074365067
 20
29.1792032674
 30
0.0
 11
18.4179219412
 21
29.289688702
 31
0.0
  0
LINE
  5
80
330
4D
100
AcDbEntity
  8
BLOCKS
 62
    16
100
AcDbLine
 10
18.7383297014
 20
29.5217081145
 30
0.0
 11
18.7552479542
 21
29.5386263673
 31
0.0
  0
LINE
  5
81
330
4D
100
AcDbEntity
  8
BLOCKS
 62
    16
100
AcDbLine
 10
18.5836500931
 20
29.3670285062
 30
0.0
 11
18.6941355276
 21
29.4775139407
 31
0.0
  0
LINE
  5
82
330
4D
100
AcDbEntity
  8
BLOCKS
 62
    16
100
AcDbLine
 10
18.4289704847
 20
29.2123488978
 30
0.0
 11
18.5394559192
 21
29.3228343323
 31
0.0
  0
LINE
  5
83
330
4D
100
AcDbEntity
  8
BLOCKS
 62
    16
100
AcDbLine
 10
18.3600642733
 20
29.1434426864
 30
0.0
 11
18.3847763109
 21
29.1681547239
 31
0.0
  0
LINE
  5
84
330
4D
100
AcDbEntity
  8
BLOCKS
 62
    16
100
AcDbLine
 10
18.7051840711
 20
29.4001741365
 30
0.0
 11
18.8156695056
 21
29.5106595711
 31
0.0
  0
LINE
  5
85
330
4D
100
AcDbEntity
  8
BLOCKS
 62
    16
100
AcDbLine
 10
18.5505044627
 20
29.2454945281
 30
0.0
 11
18.6609898973
 21
29.3559799627
 31
0.0
  0
LINE
  5
86
330
4D
100
AcDbEntity
  8
BLOCKS
 62
    16
100
AcDbLine
 10
18.4484526209
 20
29.1434426864
 30
0.0
 11
18.5063102889
 21
29.2013003543
 31
0.0
  0
LINE
  5
87
330
4D
100
AcDbEntity
  8
BLOCKS
 62
    16
100
AcDbLine
 10
18.8267180491
 20
29.4333197669
 30
0.0
 11
18.9320246495
 21
29.5386263673
 31
0.0
  0
LINE
  5
88
330
4D
100
AcDbEntity
  8
BLOCKS
 62
    16
100
AcDbLine
 10
18.6720384407
 20
29.2786401585
 30
0.0
 11
18.7825238753
 21
29.3891255931
 31
0.0
  0
LINE
  5
89
330
4D
100
AcDbEntity
  8
BLOCKS
 62
    16
100
AcDbLine
 10
18.5368409686
 20
29.1434426864
 30
0.0
 11
18.6278442669
 21
29.2344459847
 31
0.0
  0
LINE
  5
8A
330
4D
100
AcDbEntity
  8
BLOCKS
 62
    16
100
AcDbLine
 10
18.9482520271
 20
29.4664653973
 30
0.0
 11
19.0204129971
 21
29.5386263673
 31
0.0
  0
LINE
  5
8B
330
4D
100
AcDbEntity
  8
BLOCKS
 62
    16
100
AcDbLine
 10
18.7935724187
 20
29.3117857889
 30
0.0
 11
18.9040578533
 21
29.4222712234
 31
0.0
  0
LINE
  5
8C
330
4D
100
AcDbEntity
  8
BLOCKS
 62
    16
100
AcDbLine
 10
18.6388928103
 20
29.1571061805
 30
0.0
 11
18.7493782449
 21
29.267591615
 31
0.0
  0
LINE
  5
8D
330
4D
100
AcDbEntity
  8
BLOCKS
 62
    16
100
AcDbLine
 10
18.9151063967
 20
29.3449314192
 30
0.0
 11
18.9877469673
 21
29.4175719898
 31
0.0
  0
LINE
  5
8E
330
4D
100
AcDbEntity
  8
BLOCKS
 62
    16
100
AcDbLine
 10
18.7604267884
 20
29.1902518109
 30
0.0
 11
18.8709122229
 21
29.3007372454
 31
0.0
  0
LINE
  5
8F
330
4D
100
AcDbEntity
  8
BLOCKS
 62
    16
100
AcDbLine
 10
18.7136176639
 20
29.1434426864
 30
0.0
 11
18.7162326145
 21
29.146057637
 31
0.0
  0
LINE
  5
90
330
4D
100
AcDbEntity
  8
BLOCKS
 62
    16
100
AcDbLine
 10
19.0697860051
 20
29.4996110276
 30
0.0
 11
19.1088013448
 21
29.5386263673
 31
0.0
  0
LINE
  5
91
330
4D
100
AcDbEntity
  8
BLOCKS
 62
    16
100
AcDbLine
 10
18.993979901
 20
29.4238049236
 30
0.0
 11
19.0255918313
 21
29.4554168538
 31
0.0
  0
LINE
  5
92
330
4D
100
AcDbEntity
  8
BLOCKS
 62
    16
100
AcDbLine
 10
18.8819607664
 20
29.2233974412
 30
0.0
 11
18.9877469673
 21
29.3291836422
 31
0.0
  0
LINE
  5
93
330
4D
100
AcDbEntity
  8
BLOCKS
 62
    16
100
AcDbLine
 10
18.8020060115
 20
29.1434426864
 30
0.0
 11
18.8377665925
 21
29.1792032674
 31
0.0
  0
LINE
  5
94
330
4D
100
AcDbEntity
  8
BLOCKS
 62
    16
100
AcDbLine
 10
19.1913199831
 20
29.532756658
 30
0.0
 11
19.1971896924
 21
29.5386263673
 31
0.0
  0
LINE
  5
95
330
4D
100
AcDbEntity
  8
BLOCKS
 62
    16
100
AcDbLine
 10
19.0823682487
 20
29.4238049236
 30
0.0
 11
19.1471258093
 21
29.4885624842
 31
0.0
  0
LINE
  5
96
330
4D
100
AcDbEntity
  8
BLOCKS
 62
    16
100
AcDbLine
 10
18.8903943592
 20
29.1434426864
 30
0.0
 11
18.9593005706
 21
29.2123488978
 31
0.0
  0
LINE
  5
97
330
4D
100
AcDbEntity
  8
BLOCKS
 62
    16
100
AcDbLine
 10
19.1581743528
 20
29.41122268
 30
0.0
 11
19.2686597873
 21
29.5217081145
 31
0.0
  0
LINE
  5
98
330
4D
100
AcDbEntity
  8
BLOCKS
 62
    16
100
AcDbLine
 10
18.9787827068
 20
29.1434426864
 30
0.0
 11
18.9877469673
 21
29.1524069469
 31
0.0
  0
LINE
  5
99
330
4D
100
AcDbEntity
  8
BLOCKS
 62
    16
100
AcDbLine
 10
19.2797083308
 20
29.4443683103
 30
0.0
 11
19.3739663877
 21
29.5386263673
 31
0.0
  0
LINE
  5
9A
330
4D
100
AcDbEntity
  8
BLOCKS
 62
    16
100
AcDbLine
 10
19.1250287224
 20
29.289688702
 30
0.0
 11
19.235514157
 21
29.4001741365
 31
0.0
  0
LINE
  5
9B
330
4D
100
AcDbEntity
  8
BLOCKS
 62
    16
100
AcDbLine
 10
19.4012423088
 20
29.4775139407
 30
0.0
 11
19.4623547354
 21
29.5386263673
 31
0.0
  0
LINE
  5
9C
330
4D
100
AcDbEntity
  8
BLOCKS
 62
    16
100
AcDbLine
 10
19.2465627004
 20
29.3228343323
 30
0.0
 11
19.357048135
 21
29.4333197669
 31
0.0
  0
LINE
  5
9D
330
4D
100
AcDbEntity
  8
BLOCKS
 62
    16
100
AcDbLine
 10
19.1142839592
 20
29.1905555911
 30
0.0
 11
19.2023685266
 21
29.2786401585
 31
0.0
  0
LINE
  5
9E
330
4D
100
AcDbEntity
  8
BLOCKS
 62
    16
100
AcDbLine
 10
19.5227762868
 20
29.5106595711
 30
0.0
 11
19.550743083
 21
29.5386263673
 31
0.0
  0
LINE
  5
9F
330
4D
100
AcDbEntity
  8
BLOCKS
 62
    16
100
AcDbLine
 10
19.3680966784
 20
29.3559799627
 30
0.0
 11
19.478582113
 21
29.4664653973
 31
0.0
  0
LINE
  5
A0
330
4D
100
AcDbEntity
  8
BLOCKS
 62
    16
100
AcDbLine
 10
19.2134170701
 20
29.2013003543
 30
0.0
 11
19.3239025046
 21
29.3117857889
 31
0.0
  0
LINE
  5
A1
330
4D
100
AcDbEntity
  8
BLOCKS
 62
    16
100
AcDbLine
 10
19.1555594021
 20
29.1434426864
 30
0.0
 11
19.1692228962
 21
29.1571061805
 31
0.0
  0
LINE
  5
A2
330
4D
100
AcDbEntity
  8
BLOCKS
 62
    16
100
AcDbLine
 10
19.4896306565
 20
29.3891255931
 30
0.0
 11
19.600116091
 21
29.4996110276
 31
0.0
  0
LINE
  5
A3
330
4D
100
AcDbEntity
  8
BLOCKS
 62
    16
100
AcDbLine
 10
19.3349510481
 20
29.2344459847
 30
0.0
 11
19.4454364826
 21
29.3449314192
 31
0.0
  0
LINE
  5
A4
330
4D
100
AcDbEntity
  8
BLOCKS
 62
    16
100
AcDbLine
 10
19.2439477497
 20
29.1434426864
 30
0.0
 11
19.2907568742
 21
29.1902518109
 31
0.0
  0
LINE
  5
A5
330
4D
100
AcDbEntity
  8
BLOCKS
 62
    16
100
AcDbLine
 10
19.6111646345
 20
29.4222712234
 30
0.0
 11
19.721650069
 21
29.532756658
 31
0.0
  0
LINE
  5
A6
330
4D
100
AcDbEntity
  8
BLOCKS
 62
    16
100
AcDbLine
 10
19.4564850261
 20
29.267591615
 30
0.0
 11
19.5669704606
 21
29.3780770496
 31
0.0
  0
LINE
  5
A7
330
4D
100
AcDbEntity
  8
BLOCKS
 62
    16
100
AcDbLine
 10
19.3323360974
 20
29.1434426864
 30
0.0
 11
19.4122908523
 21
29.2233974412
 31
0.0
  0
LINE
  5
A8
330
4D
100
AcDbEntity
  8
BLOCKS
 62
    16
100
AcDbLine
 10
19.7326986125
 20
29.4554168538
 30
0.0
 11
19.815908126
 21
29.5386263673
 31
0.0
  0
LINE
  5
A9
330
4D
100
AcDbEntity
  8
BLOCKS
 62
    16
100
AcDbLine
 10
19.5780190041
 20
29.3007372454
 30
0.0
 11
19.6885044387
 21
29.41122268
 31
0.0
  0
LINE
  5
AA
330
4D
100
AcDbEntity
  8
BLOCKS
 62
    16
100
AcDbLine
 10
19.4233393957
 20
29.146057637
 30
0.0
 11
19.5338248303
 21
29.2565430716
 31
0.0
  0
LINE
  5
AB
330
4D
100
AcDbEntity
  8
BLOCKS
 62
    16
100
AcDbLine
 10
19.8542325905
 20
29.4885624842
 30
0.0
 11
19.8795667187
 21
29.5138966123
 31
0.0
  0
LINE
  5
AC
330
4D
100
AcDbEntity
  8
BLOCKS
 62
    16
100
AcDbLine
 10
19.6995529821
 20
29.3338828758
 30
0.0
 11
19.8100384167
 21
29.4443683103
 31
0.0
  0
LINE
  5
AD
330
4D
100
AcDbEntity
  8
BLOCKS
 62
    16
100
AcDbLine
 10
19.5448733737
 20
29.1792032674
 30
0.0
 11
19.6553588083
 21
29.289688702
 31
0.0
  0
LINE
  5
AE
330
4D
100
AcDbEntity
  8
BLOCKS
 62
    16
100
AcDbLine
 10
19.8210869601
 20
29.3670285062
 30
0.0
 11
19.894051072
 21
29.439992618
 31
0.0
  0
LINE
  5
AF
330
4D
100
AcDbEntity
  8
BLOCKS
 62
    16
100
AcDbLine
 10
19.6664073518
 20
29.2123488978
 30
0.0
 11
19.7768927863
 21
29.3228343323
 31
0.0
  0
LINE
  5
B0
330
4D
100
AcDbEntity
  8
BLOCKS
 62
    16
100
AcDbLine
 10
19.5975011403
 20
29.1434426864
 30
0.0
 11
19.6222131779
 21
29.1681547239
 31
0.0
  0
LINE
  5
B1
330
4D
100
AcDbEntity
  8
BLOCKS
 62
    16
100
AcDbLine
 10
19.7879413298
 20
29.2454945281
 30
0.0
 11
19.894051072
 21
29.3516042704
 31
0.0
  0
LINE
  5
B2
330
4D
100
AcDbEntity
  8
BLOCKS
 62
    16
100
AcDbLine
 10
19.685889488
 20
29.1434426864
 30
0.0
 11
19.7437471559
 21
29.2013003543
 31
0.0
  0
LINE
  5
B3
330
4D
100
AcDbEntity
  8
BLOCKS
 62
    16
100
AcDbLine
 10
19.7742778356
 20
29.1434426864
 30
0.0
 11
19.865281134
 21
29.2344459847
 31
0.0
  0
LINE
  5
B4
330
4D
100
AcDbEntity
  8
BLOCKS
 62
    16
100
AcDbLine
 10
19.8763296774
 20
29.1571061805
 30
0.0
 11
19.894051072
 21
29.1748275751
 31
0.0
  0
LINE
  5
B5
330
4D
100
AcDbEntity
  8
BLOCKS
 62
    16
100
AcDbLine
 10
19.0540492515
 20
29.3954859264
 30
0.0
 11
19.0125511605
 21
29.3539878353
 31
0.0
  0
LINE
  5
B6
330
4D
100
AcDbEntity
  8
BLOCKS
 62
    16
100
AcDbLine
 10
19.0864194327
 20
29.3394677599
 30
0.0
 11
19.0095275609
 21
29.2625758881
 31
0.0
  0
LINE
  5
B7
330
4D
100
AcDbEntity
  8
BLOCKS
 62
    16
100
AcDbLine
 10
19.0864194327
 20
29.2510794123
 30
0.0
 11
19.0095275609
 21
29.1741875405
 31
0.0
  0
LINE
  5
B8
330
4D
100
AcDbEntity
  8
BLOCKS
 62
    16
100
AcDbLine
 10
19.0864194327
 20
29.1626910646
 30
0.0
 11
19.0671710544
 21
29.1434426864
 31
0.0
  0
LINE
  5
B9
330
4D
100
AcDbEntity
  8
BLOCKS
 62
    16
100
AcDbLine
 10
19.066235184
 20
29.3782090764
 30
0.0
 11
19.0095275609
 21
29.3215014533
 31
0.0
  0
LINE
  5
BA
330
4D
100
AcDbEntity
  8
BLOCKS
 62
    16
100
AcDbLine
 10
19.0864194327
 20
29.3100049774
 30
0.0
 11
19.0095275609
 21
29.2331131056
 31
0.0
  0
LINE
  5
BB
330
4D
100
AcDbEntity
  8
BLOCKS
 62
    16
100
AcDbLine
 10
19.0864194327
 20
29.2216166298
 30
0.0
 11
19.0095275609
 21
29.144724758
 31
0.0
  0
LINE
  5
BC
330
4D
100
AcDbEntity
  8
BLOCKS
 62
    16
100
AcDbLine
 10
19.0671710544
 20
29.1434426864
 30
0.0
 11
19.0095275609
 21
29.0857991928
 31
0.0
  0
LINE
  5
BD
330
4D
100
AcDbEntity
  8
BLOCKS
 62
    16
100
AcDbLine
 10
19.0864194327
 20
29.074302717
 30
0.0
 11
19.0672440761
 21
29.0551273603
 31
0.0
  0
LINE
  5
BE
330
4D
100
AcDbEntity
  8
BLOCKS
 62
    16
100
AcDbLine
 10
19.0864194327
 20
29.1332282821
 30
0.0
 11
19.0113140216
 21
29.0581228711
 31
0.0
  0
LINE
  5
BF
330
4D
100
AcDbEntity
  8
BLOCKS
 62
    16
100
AcDbLine
 10
19.0672440761
 20
29.0551273603
 30
0.0
 11
19.0147315304
 21
29.0026148146
 31
0.0
  0
LINE
  5
C0
330
4D
100
AcDbEntity
  8
BLOCKS
 62
    16
100
AcDbLine
 10
19.0113140216
 20
29.0581228711
 30
0.0
 11
19.0095275609
 21
29.0563364103
 31
0.0
  0
LINE
  5
C1
330
4D
100
AcDbEntity
  8
BLOCKS
 62
    16
100
AcDbLine
 10
19.0864194327
 20
29.0448399345
 30
0.0
 11
19.0425738628
 21
29.0009943645
 31
0.0
  0
LINE
  5
C2
330
4D
100
AcDbEntity
  8
BLOCKS
 62
    16
100
AcDbLine
 10
19.0116569958
 20
28.9995402801
 30
0.0
 11
19.0095275609
 21
28.9974108452
 31
0.0
  0
LINE
  5
C3
330
4D
100
AcDbEntity
  8
BLOCKS
 62
    16
100
AcDbLine
 10
19.0864194327
 20
28.9859143693
 30
0.0
 11
19.0647212668
 21
28.9642162034
 31
0.0
  0
LINE
  5
C4
330
4D
100
AcDbEntity
  8
BLOCKS
 62
    16
100
AcDbLine
 10
19.0394993282
 20
28.9979198299
 30
0.0
 11
19.0095275609
 21
28.9679480627
 31
0.0
  0
LINE
  5
C5
330
4D
100
AcDbEntity
  8
BLOCKS
 62
    16
100
AcDbLine
 10
19.0095275609
 20
28.9974108452
 30
0.0
 11
18.9811942695
 21
28.9690775538
 31
0.0
  0
LINE
  5
C6
330
4D
100
AcDbEntity
  8
BLOCKS
 62
    16
100
AcDbLine
 10
18.9559723309
 20
29.0027811803
 30
0.0
 11
18.946149557
 21
28.9929584064
 31
0.0
  0
LINE
  5
C7
330
4D
100
AcDbEntity
  8
BLOCKS
 62
    16
100
AcDbLine
 10
19.0095275609
 20
28.9679480627
 30
0.0
 11
19.0090366019
 21
28.9674571036
 31
0.0
  0
LINE
  5
C8
330
4D
100
AcDbEntity
  8
BLOCKS
 62
    16
100
AcDbLine
 10
19.0951839931
 20
28.9946789297
 30
0.0
 11
19.0864194327
 21
28.9859143693
 31
0.0
  0
LINE
  5
C9
330
4D
100
AcDbEntity
  8
BLOCKS
 62
    16
100
AcDbLine
 10
19.1578905048
 20
28.9689970938
 30
0.0
 11
19.1482482641
 21
28.959354853
 31
0.0
  0
LINE
  5
CA
330
4D
100
AcDbEntity
  8
BLOCKS
 62
    16
100
AcDbLine
 10
19.1230263255
 20
28.9930584796
 30
0.0
 11
19.0925635992
 21
28.9625957533
 31
0.0
  0
LINE
  5
CB
330
4D
100
AcDbEntity
  8
BLOCKS
 62
    16
100
AcDbLine
 10
18.9714094326
 20
28.9592927168
 30
0.0
 11
18.9667139662
 21
28.9545972505
 31
0.0
  0
LINE
  5
CC
330
4D
100
AcDbEntity
  8
BLOCKS
 62
    16
100
AcDbLine
 10
19.0597977802
 20
28.9592927168
 30
0.0
 11
19.0109541882
 21
28.9104491248
 31
0.0
  0
LINE
  5
CD
330
4D
100
AcDbEntity
  8
BLOCKS
 62
    16
100
AcDbLine
 10
19.0008722151
 20
28.9592927168
 30
0.0
 11
18.9778485343
 21
28.9362690361
 31
0.0
  0
LINE
  5
CE
330
4D
100
AcDbEntity
  8
BLOCKS
 62
    16
100
AcDbLine
 10
19.0892605627
 20
28.9592927168
 30
0.0
 11
19.0337052462
 21
28.9037374003
 31
0.0
  0
INSERT
  5
E6
330
4D
100
AcDbEntity
  8
BLOCKS
100
AcDbBlockReference
  2
SW_BLOCK_DIMENSION_0
 10
19.8522205704
 20
29.6493704876
 30
0.0
  0
ENDBLK
  5
4F
330
4D
100
AcDbEntity
  8
0
100
AcDbBlockEnd
  0
BLOCK
  5
D0
330
CF
100
AcDbEntity
  8
0
100
AcDbBlockBegin
  2
SW_BLOCK_DIMENSION_0
 70
     0
 10
0.0
 20
0.0
 30
0.0
  3
SW_BLOCK_DIMENSION_0
  1

  0
SOLID
  5
D2
330
CF
100
AcDbEntity
  8
BLOCKS
 62
     0
100
AcDbTrace
 10
0.5418305016
 20
-0.0313006311
 30
0.0
 11
0.6429454105
 21
-0.0468567709
 31
0.0
 12
0.6429454105
 22
-0.0157444913
 32
0.0
 13
0.6429454105
 23
-0.0157444913
 33
0.0
  0
SOLID
  5
D3
330
CF
100
AcDbEntity
  8
BLOCKS
 62
     0
100
AcDbTrace
 10
0.0418305016
 20
-0.0313006311
 30
0.0
 11
-0.0592844072
 21
-0.0157444913
 31
0.0
 12
-0.0592844072
 22
-0.0468567709
 32
0.0
 13
-0.0592844072
 23
-0.0468567709
 33
0.0
  0
LINE
  5
D4
330
CF
100
AcDbEntity
  8
BLOCKS
 62
     0
100
AcDbLine
 10
0.1071566371
 20
0.0798201425
 30
0.0
 11
0.2138310215
 21
0.0798201425
 31
0.0
  0
LINE
  5
D5
330
CF
100
AcDbEntity
  8
BLOCKS
 62
     0
100
AcDbLine
 10
0.079089508
 20
-0.0940224566
 30
0.0
 11
0.0559413594
 21
-0.0940224566
 31
0.0
  0
LINE
  5
D6
330
CF
100
AcDbEntity
  8
BLOCKS
 62
     0
100
AcDbLine
 10
0.0559413594
 20
-0.0940224566
 30
0.0
 11
0.0559413594
 21
-0.249307956
 31
0.0
  0
LINE
  5
D7
330
CF
100
AcDbEntity
  8
BLOCKS
 62
     0
100
AcDbLine
 10
0.0559413594
 20
-0.249307956
 30
0.0
 11
0.079089508
 21
-0.249307956
 31
0.0
  0
LINE
  5
D8
330
CF
100
AcDbEntity
  8
BLOCKS
 62
     0
100
AcDbLine
 10
0.2912808701
 20
-0.0940224566
 30
0.0
 11
0.3144290187
 21
-0.0940224566
 31
0.0
  0
LINE
  5
D9
330
CF
100
AcDbEntity
  8
BLOCKS
 62
     0
100
AcDbLine
 10
0.3144290187
 20
-0.0940224566
 30
0.0
 11
0.3144290187
 21
-0.249307956
 31
0.0
  0
LINE
  5
DA
330
CF
100
AcDbEntity
  8
BLOCKS
 62
     0
100
AcDbLine
 10
0.3144290187
 20
-0.249307956
 30
0.0
 11
0.2912808701
 21
-0.249307956
 31
0.0
  0
LINE
  5
DB
330
CF
100
AcDbEntity
  8
BLOCKS
 62
     0
100
AcDbLine
 10
0.5418305016
 20
-0.711486603
 30
0.0
 11
0.5418305016
 21
0.0936993689
 31
0.0
  0
LINE
  5
DC
330
CF
100
AcDbEntity
  8
BLOCKS
 62
     0
100
AcDbLine
 10
0.0418305016
 20
-0.1267236731
 30
0.0
 11
0.0418305016
 21
0.0936993689
 31
0.0
  0
LINE
  5
DD
330
CF
100
AcDbEntity
  8
BLOCKS
 62
     0
100
AcDbLine
 10
0.5418305016
 20
-0.0313006311
 30
0.0
 11
0.7362822494
 21
-0.0313006311
 31
0.0
  0
LINE
  5
DE
330
CF
100
AcDbEntity
  8
BLOCKS
 62
     0
100
AcDbLine
 10
0.0418305016
 20
-0.0313006311
 30
0.0
 11
-0.1526212462
 21
-0.0313006311
 31
0.0
  0
MTEXT
  5
E0
330
CF
100
AcDbEntity
  8
BLOCKS
 62
     0
100
AcDbMText
 10
0.0390625
 20
0.1342778896
 30
0.0039370079
 40
0.1041666667
 41
0.0
 71
     1
 72
     1
  1

  7
SLDTEXTSTYLE0
  0
MTEXT
  5
E1
330
CF
100
AcDbEntity
  8
BLOCKS
 62
     0
100
AcDbMText
 10
0.1219135808
 20
0.2052438631
 30
0.0039370079
 40
0.1041666667
 41
0.0
 71
     1
 72
     1
  1
1
  7
SLDTEXTSTYLE0
  0
MTEXT
  5
E2
330
CF
100
AcDbEntity
  8
BLOCKS
 62
     0
100
AcDbMText
 10
0.1219135808
 20
0.0634035871
 30
0.0039370079
 40
0.1041666667
 41
0.0
 71
     1
 72
     1
  1
2
  7
SLDTEXTSTYLE0
  0
MTEXT
  5
E3
330
CF
100
AcDbEntity
  8
BLOCKS
 62
     0
100
AcDbMText
 10
0.2285879652
 20
0.1342778896
 30
0.0039370079
 40
0.1041666667
 41
0.0
 71
     1
 72
     1
  1
"
  7
SLDTEXTSTYLE0
  0
MTEXT
  5
E4
330
CF
100
AcDbEntity
  8
BLOCKS
 62
     0
100
AcDbMText
 10
0.1080246921
 20
-0.1150300596
 30
0.0039370079
 40
0.1041666667
 41
0.0
 71
     1
 72
     1
  1
13
  7
SLDTEXTSTYLE0
  0
MTEXT
  5
E5
330
CF
100
AcDbEntity
  8
BLOCKS
 62
     0
100
AcDbMText
 10
0.3708526205
 20
0.1342778896
 30
0.0039370079
 40
0.1041666667
 41
0.0
 71
     1
 72
     1
  1

  7
SLDTEXTSTYLE0
  0
ENDBLK
  5
D1
330
CF
100
AcDbEntity
  8
0
100
AcDbBlockEnd
  0
BLOCK
  5
105
330
104
100
AcDbEntity
  8
0
100
AcDbBlockBegin
  2
_D
 70
     0
 10
0.0
 20
0.0
 30
0.0
  3
_D
  1

  0
SOLID
  5
107
330
104
100
AcDbEntity
  8
DIMS
100
AcDbTrace
 10
27.2634027706
 20
22.6138746591
 30
0.0
 11
27.0984049912
 21
22.4928762875
 31
0.0
 12
27.142404399
 22
22.4488768797
 32
0.0
 13
27.142404399
 23
22.4488768797
 33
0.0
  0
LINE
  5
108
330
104
100
AcDbEntity
  8
DIMS
100
AcDbLine
 10
25.1513691018
 20
21.5223542226
 30
0.0
 11
25.4713922548
 21
21.5223542226
 31
0.0
  0
LINE
  5
109
330
104
100
AcDbEntity
  8
DIMS
100
AcDbLine
 10
24.8009639972
 20
21.0008264415
 30
0.0
 11
24.7315195536
 21
21.0008264415
 31
0.0
  0
LINE
  5
10A
330
104
100
AcDbEntity
  8
DIMS
100
AcDbLine
 10
24.7315195536
 20
21.0008264415
 30
0.0
 11
24.7315195536
 21
20.5349699431
 31
0.0
  0
LINE
  5
10B
330
104
100
AcDbEntity
  8
DIMS
100
AcDbLine
 10
24.7315195536
 20
20.5349699431
 30
0.0
 11
24.8009639972
 21
20.5349699431
 31
0.0
  0
LINE
  5
10C
330
104
100
AcDbEntity
  8
DIMS
100
AcDbLine
 10
25.4375380651
 20
21.0008264415
 30
0.0
 11
25.5069825087
 21
21.0008264415
 31
0.0
  0
LINE
  5
10D
330
104
100
AcDbEntity
  8
DIMS
100
AcDbLine
 10
25.5069825087
 20
21.0008264415
 30
0.0
 11
25.5069825087
 21
20.5349699431
 31
0.0
  0
LINE
  5
10E
330
104
100
AcDbEntity
  8
DIMS
100
AcDbLine
 10
25.5069825087
 20
20.5349699431
 30
0.0
 11
25.4375380651
 21
20.5349699431
 31
0.0
  0
LINE
  5
10F
330
104
100
AcDbEntity
  8
DIMS
100
AcDbLine
 10
27.2634027706
 20
22.6138746591
 30
0.0
 11
25.913811217
 21
21.2642831055
 31
0.0
  0
LINE
  5
110
330
104
100
AcDbEntity
  8
DIMS
100
AcDbLine
 10
25.913811217
 20
21.2642831055
 30
0.0
 11
25.663811217
 21
21.2642831055
 31
0.0
  0
MTEXT
  5
111
330
104
100
AcDbEntity
  8
DIMS
100
AcDbMText
 10
24.5746908453
 20
21.6857274867
 30
0.0039370079
 40
0.3125
 41
0.0
 71
     1
 72
     1
  1
R2
  7
SLDTEXTSTYLE0
  0
MTEXT
  5
112
330
104
100
AcDbEntity
  8
DIMS
100
AcDbMText
 10
25.195639942
 20
21.8986254073
 30
0.0039370079
 40
0.3125
 41
0.0
 71
     1
 72
     1
  1
1
  7
SLDTEXTSTYLE0
  0
MTEXT
  5
113
330
104
100
AcDbEntity
  8
DIMS
100
AcDbMText
 10
25.195639942
 20
21.4731045589
 30
0.0039370079
 40
0.3125
 41
0.0
 71
     1
 72
     1
  1
2
  7
SLDTEXTSTYLE0
  0
MTEXT
  5
114
330
104
100
AcDbEntity
  8
DIMS
100
AcDbMText
 10
25.5156630951
 20
21.6857274867
 30
0.0039370079
 40
0.3125
 41
0.0
 71
     1
 72
     1
  1
"
  7
SLDTEXTSTYLE0
  0
MTEXT
  5
115
330
104
100
AcDbEntity
  8
DIMS
100
AcDbMText
 10
24.8877695585
 20
20.9378036301
 30
0.0039370079
 40
0.3125
 41
0.0
 71
     1
 72
     1
  1
63
  7
SLDTEXTSTYLE0
  0
ENDBLK
  5
106
330
104
100
AcDbEntity
  8
0
100
AcDbBlockEnd
  0
BLOCK
  5
119
330
118
100
AcDbEntity
  8
0
100
AcDbBlockBegin
  2
_D_1
 70
     0
 10
0.0
 20
0.0
 30
0.0
  3
_D_1
  1

  0
SOLID
  5
11B
330
118
100
AcDbEntity
  8
DIMS
100
AcDbTrace
 10
30.8222572343
 20
21.8816416392
 30
0.0
 11
30.7911449546
 21
21.6794118215
 31
0.0
 12
30.8533695139
 22
21.6794118215
 32
0.0
 13
30.8533695139
 23
21.6794118215
 33
0.0
  0
SOLID
  5
11C
330
118
100
AcDbEntity
  8
DIMS
100
AcDbTrace
 10
30.8222572343
 20
6.7566413392
 30
0.0
 11
30.8533695139
 21
6.9588711569
 31
0.0
 12
30.7911449546
 22
6.9588711569
 32
0.0
 13
30.7911449546
 23
6.9588711569
 33
0.0
  0
LINE
  5
11D
330
118
100
AcDbEntity
  8
DIMS
100
AcDbLine
 10
30.8196530694
 20
14.6525037573
 30
0.0
 11
31.1396762224
 21
14.6525037573
 31
0.0
  0
LINE
  5
11E
330
118
100
AcDbEntity
  8
DIMS
100
AcDbLine
 10
30.388229464
 20
14.1309759762
 30
0.0
 11
30.3187850204
 21
14.1309759762
 31
0.0
  0
LINE
  5
11F
330
118
100
AcDbEntity
  8
DIMS
100
AcDbLine
 10
30.3187850204
 20
14.1309759762
 30
0.0
 11
30.3187850204
 21
13.6651194778
 31
0.0
  0
LINE
  5
120
330
118
100
AcDbEntity
  8
DIMS
100
AcDbLine
 10
30.3187850204
 20
13.6651194778
 30
0.0
 11
30.388229464
 21
13.6651194778
 31
0.0
  0
LINE
  5
121
330
118
100
AcDbEntity
  8
DIMS
100
AcDbLine
 10
31.2562850045
 20
14.1309759762
 30
0.0
 11
31.3257294481
 21
14.1309759762
 31
0.0
  0
LINE
  5
122
330
118
100
AcDbEntity
  8
DIMS
100
AcDbLine
 10
31.3257294481
 20
14.1309759762
 30
0.0
 11
31.3257294481
 21
13.6651194778
 31
0.0
  0
LINE
  5
123
330
118
100
AcDbEntity
  8
DIMS
100
AcDbLine
 10
31.3257294481
 20
13.6651194778
 30
0.0
 11
31.2562850045
 21
13.6651194778
 31
0.0
  0
LINE
  5
124
330
118
100
AcDbEntity
  8
DIMS
100
AcDbLine
 10
30.8222572343
 20
21.8816416392
 30
0.0
 11
30.8222572343
 21
15.0426079716
 31
0.0
  0
LINE
  5
125
330
118
100
AcDbEntity
  8
DIMS
100
AcDbLine
 10
30.8222572343
 20
6.7566413392
 30
0.0
 11
30.8222572343
 21
13.5956750067
 31
0.0
  0
MTEXT
  5
126
330
118
100
AcDbEntity
  8
DIMS
100
AcDbMText
 10
30.312419284
 20
14.8158770214
 30
0.0039370079
 40
0.3125
 41
0.0
 71
     1
 72
     1
  1
15
  7
SLDTEXTSTYLE0
  0
MTEXT
  5
127
330
118
100
AcDbEntity
  8
DIMS
100
AcDbMText
 10
30.8639239096
 20
15.028774942
 30
0.0039370079
 40
0.3125
 41
0.0
 71
     1
 72
     1
  1
1
  7
SLDTEXTSTYLE0
  0
MTEXT
  5
128
330
118
100
AcDbEntity
  8
DIMS
100
AcDbMText
 10
30.8639239096
 20
14.6032540937
 30
0.0039370079
 40
0.3125
 41
0.0
 71
     1
 72
     1
  1
8
  7
SLDTEXTSTYLE0
  0
MTEXT
  5
129
330
118
100
AcDbEntity
  8
DIMS
100
AcDbMText
 10
31.1839470627
 20
14.8158770214
 30
0.0039370079
 40
0.3125
 41
0.0
 71
     1
 72
     1
  1
"
  7
SLDTEXTSTYLE0
  0
MTEXT
  5
12A
330
118
100
AcDbEntity
  8
DIMS
100
AcDbMText
 10
30.4750350254
 20
14.0679531648
 30
0.0039370079
 40
0.3125
 41
0.0
 71
     1
 72
     1
  1
384
  7
SLDTEXTSTYLE0
  0
ENDBLK
  5
11A
330
118
100
AcDbEntity
  8
0
100
AcDbBlockEnd
  0
BLOCK
  5
12D
330
12C
100
AcDbEntity
  8
0
100
AcDbBlockBegin
  2
_D_2
 70
     0
 10
0.0
 20
0.0
 30
0.0
  3
_D_2
  1

  0
SOLID
  5
12F
330
12C
100
AcDbEntity
  8
DIMS
100
AcDbTrace
 10
7.2845888839
 20
9.8696591157
 30
0.0
 11
7.4878198907
 21
9.8933663084
 31
0.0
 12
7.4712960637
 22
9.9533567986
 32
0.0
 13
7.4712960637
 23
9.9533567986
 33
0.0
  0
LINE
  5
130
330
12C
100
AcDbEntity
  8
DIMS
100
AcDbLine
 10
9.0730657655
 20
10.7186739409
 30
0.0
 11
9.6245703912
 21
10.7186739409
 31
0.0
  0
LINE
  5
131
330
12C
100
AcDbEntity
  8
DIMS
100
AcDbLine
 10
8.8384014339
 20
10.1971461598
 30
0.0
 11
8.7689569903
 21
10.1971461598
 31
0.0
  0
LINE
  5
132
330
12C
100
AcDbEntity
  8
DIMS
100
AcDbLine
 10
8.7689569903
 20
10.1971461598
 30
0.0
 11
8.7689569903
 21
9.7312896614
 31
0.0
  0
LINE
  5
133
330
12C
100
AcDbEntity
  8
DIMS
100
AcDbLine
 10
8.7689569903
 20
9.7312896614
 30
0.0
 11
8.8384014339
 21
9.7312896614
 31
0.0
  0
LINE
  5
134
330
12C
100
AcDbEntity
  8
DIMS
100
AcDbLine
 10
9.4749755018
 20
10.1971461598
 30
0.0
 11
9.5444199454
 21
10.1971461598
 31
0.0
  0
LINE
  5
135
330
12C
100
AcDbEntity
  8
DIMS
100
AcDbLine
 10
9.5444199454
 20
10.1971461598
 30
0.0
 11
9.5444199454
 21
9.7312896614
 31
0.0
  0
LINE
  5
136
330
12C
100
AcDbEntity
  8
DIMS
100
AcDbLine
 10
9.5444199454
 20
9.7312896614
 30
0.0
 11
9.4749755018
 21
9.7312896614
 31
0.0
  0
LINE
  5
137
330
12C
100
AcDbEntity
  8
DIMS
100
AcDbLine
 10
10.9602078548
 20
10.8820744473
 30
0.0
 11
9.8864167525
 21
10.5863085957
 31
0.0
  0
LINE
  5
138
330
12C
100
AcDbEntity
  8
DIMS
100
AcDbLine
 10
7.2845888839
 20
9.8696591157
 30
0.0
 11
8.4269601832
 21
10.1843147498
 31
0.0
  0
MTEXT
  5
139
330
12C
100
AcDbEntity
  8
DIMS
100
AcDbMText
 10
8.496387509
 20
10.882047205
 30
0.0039370079
 40
0.3125
 41
0.0
 71
     1
 72
     1
  1
R3
  7
SLDTEXTSTYLE0
  0
MTEXT
  5
13A
330
12C
100
AcDbEntity
  8
DIMS
100
AcDbMText
 10
9.1173366058
 20
11.0949451256
 30
0.0039370079
 40
0.3125
 41
0.0
 71
     1
 72
     1
  1
13
  7
SLDTEXTSTYLE0
  0
MTEXT
  5
13B
330
12C
100
AcDbEntity
  8
DIMS
100
AcDbMText
 10
9.1173366058
 20
10.6694242772
 30
0.0039370079
 40
0.3125
 41
0.0
 71
     1
 72
     1
  1
16
  7
SLDTEXTSTYLE0
  0
MTEXT
  5
13C
330
12C
100
AcDbEntity
  8
DIMS
100
AcDbMText
 10
9.6688412314
 20
10.882047205
 30
0.0039370079
 40
0.3125
 41
0.0
 71
     1
 72
     1
  1
"
  7
SLDTEXTSTYLE0
  0
MTEXT
  5
13D
330
12C
100
AcDbEntity
  8
DIMS
100
AcDbMText
 10
8.9252069953
 20
10.1341233484
 30
0.0039370079
 40
0.3125
 41
0.0
 71
     1
 72
     1
  1
97
  7
SLDTEXTSTYLE0
  0
ENDBLK
  5
12E
330
12C
100
AcDbEntity
  8
0
100
AcDbBlockEnd
  0
BLOCK
  5
141
330
140
100
AcDbEntity
  8
0
100
AcDbBlockBegin
  2
_D_3
 70
     0
 10
0.0
 20
0.0
 30
0.0
  3
_D_3
  1

  0
SOLID
  5
143
330
140
100
AcDbEntity
  8
DIMS
100
AcDbTrace
 10
36.896575658
 20
4.3425547535
 30
0.0
 11
36.6943458403
 21
4.3736670332
 31
0.0
 12
36.6943458403
 22
4.3114424739
 32
0.0
 13
36.6943458403
 23
4.3114424739
 33
0.0
  0
SOLID
  5
144
330
140
100
AcDbEntity
  8
DIMS
100
AcDbTrace
 10
6.865380058
 20
4.3425547535
 30
0.0
 11
7.0676098757
 21
4.3114424739
 31
0.0
 12
7.0676098757
 22
4.3736670332
 32
0.0
 13
7.0676098757
 23
4.3736670332
 33
0.0
  0
LINE
  5
145
330
140
100
AcDbEntity
  8
DIMS
100
AcDbLine
 10
21.4469500878
 20
4.3671496261
 30
0.0
 11
21.3775056441
 21
4.3671496261
 31
0.0
  0
LINE
  5
146
330
140
100
AcDbEntity
  8
DIMS
100
AcDbLine
 10
21.3775056441
 20
4.3671496261
 30
0.0
 11
21.3775056441
 21
3.9012931277
 31
0.0
  0
LINE
  5
147
330
140
100
AcDbEntity
  8
DIMS
100
AcDbLine
 10
21.3775056441
 20
3.9012931277
 30
0.0
 11
21.4469500878
 21
3.9012931277
 31
0.0
  0
LINE
  5
148
330
140
100
AcDbEntity
  8
DIMS
100
AcDbLine
 10
22.3150056282
 20
4.3671496261
 30
0.0
 11
22.3844500718
 21
4.3671496261
 31
0.0
  0
LINE
  5
149
330
140
100
AcDbEntity
  8
DIMS
100
AcDbLine
 10
22.3844500718
 20
4.3671496261
 30
0.0
 11
22.3844500718
 21
3.9012931277
 31
0.0
  0
LINE
  5
14A
330
140
100
AcDbEntity
  8
DIMS
100
AcDbLine
 10
22.3844500718
 20
3.9012931277
 30
0.0
 11
22.3150056282
 21
3.9012931277
 31
0.0
  0
LINE
  5
14B
330
140
100
AcDbEntity
  8
DIMS
100
AcDbLine
 10
36.896575658
 20
14.2691413392
 30
0.0
 11
36.896575658
 21
4.2175547535
 31
0.0
  0
LINE
  5
14C
330
140
100
AcDbEntity
  8
DIMS
100
AcDbLine
 10
6.865380058
 20
15.1127876392
 30
0.0
 11
6.865380058
 21
4.2175547535
 31
0.0
  0
LINE
  5
14D
330
140
100
AcDbEntity
  8
DIMS
100
AcDbLine
 10
36.896575658
 20
4.3425547535
 30
0.0
 11
22.5059607326
 21
4.3425547535
 31
0.0
  0
LINE
  5
14E
330
140
100
AcDbEntity
  8
DIMS
100
AcDbLine
 10
6.865380058
 20
4.3425547535
 30
0.0
 11
21.2559949834
 21
4.3425547535
 31
0.0
  0
MTEXT
  5
14F
330
140
100
AcDbEntity
  8
DIMS
100
AcDbMText
 10
21.5754223061
 20
4.8394277475
 30
0.0039370079
 40
0.3125
 41
0.0
 71
     1
 72
     1
  1
30"
  7
SLDTEXTSTYLE0
  0
MTEXT
  5
150
330
140
100
AcDbEntity
  8
DIMS
100
AcDbMText
 10
21.5337556491
 20
4.3041268147
 30
0.0039370079
 40
0.3125
 41
0.0
 71
     1
 72
     1
  1
763
  7
SLDTEXTSTYLE0
  0
ENDBLK
  5
142
330
140
100
AcDbEntity
  8
0
100
AcDbBlockEnd
  0
BLOCK
  5
153
330
152
100
AcDbEntity
  8
0
100
AcDbBlockBegin
  2
_D_4
 70
     0
 10
0.0
 20
0.0
 30
0.0
  3
_D_4
  1

  0
SOLID
  5
155
330
152
100
AcDbEntity
  8
DIMS
100
AcDbTrace
 10
4.5180608347
 20
26.3991727015
 30
0.0
 11
4.4869485551
 21
26.1969428838
 31
0.0
 12
4.5491731144
 22
26.1969428838
 32
0.0
 13
4.5491731144
 23
26.1969428838
 33
0.0
  0
SOLID
  5
156
330
152
100
AcDbEntity
  8
DIMS
100
AcDbTrace
 10
4.5180608347
 20
6.7566413392
 30
0.0
 11
4.5491731144
 21
6.9588711569
 31
0.0
 12
4.4869485551
 22
6.9588711569
 32
0.0
 13
4.4869485551
 23
6.9588711569
 33
0.0
  0
LINE
  5
157
330
152
100
AcDbEntity
  8
DIMS
100
AcDbLine
 10
4.5154566698
 20
16.9112692885
 30
0.0
 11
4.8354798229
 21
16.9112692885
 31
0.0
  0
LINE
  5
158
330
152
100
AcDbEntity
  8
DIMS
100
AcDbLine
 10
4.0840330645
 20
16.3897415074
 30
0.0
 11
4.0145886209
 21
16.3897415074
 31
0.0
  0
LINE
  5
159
330
152
100
AcDbEntity
  8
DIMS
100
AcDbLine
 10
4.0145886209
 20
16.3897415074
 30
0.0
 11
4.0145886209
 21
15.923885009
 31
0.0
  0
LINE
  5
15A
330
152
100
AcDbEntity
  8
DIMS
100
AcDbLine
 10
4.0145886209
 20
15.923885009
 30
0.0
 11
4.0840330645
 21
15.923885009
 31
0.0
  0
LINE
  5
15B
330
152
100
AcDbEntity
  8
DIMS
100
AcDbLine
 10
4.952088605
 20
16.3897415074
 30
0.0
 11
5.0215330486
 21
16.3897415074
 31
0.0
  0
LINE
  5
15C
330
152
100
AcDbEntity
  8
DIMS
100
AcDbLine
 10
5.0215330486
 20
16.3897415074
 30
0.0
 11
5.0215330486
 21
15.923885009
 31
0.0
  0
LINE
  5
15D
330
152
100
AcDbEntity
  8
DIMS
100
AcDbLine
 10
5.0215330486
 20
15.923885009
 30
0.0
 11
4.952088605
 21
15.923885009
 31
0.0
  0
LINE
  5
15E
330
152
100
AcDbEntity
  8
DIMS
100
AcDbLine
 10
17.8310546645
 20
26.3991727015
 30
0.0
 11
4.3930608347
 21
26.3991727015
 31
0.0
  0
LINE
  5
15F
330
152
100
AcDbEntity
  8
DIMS
100
AcDbLine
 10
17.8310546577
 20
6.7566413392
 30
0.0
 11
4.3930608347
 21
6.7566413392
 31
0.0
  0
LINE
  5
160
330
152
100
AcDbEntity
  8
DIMS
100
AcDbLine
 10
4.5180608347
 20
26.3991727015
 30
0.0
 11
4.5180608347
 21
17.3013735028
 31
0.0
  0
LINE
  5
161
330
152
100
AcDbEntity
  8
DIMS
100
AcDbLine
 10
4.5180608347
 20
6.7566413392
 30
0.0
 11
4.5180608347
 21
15.8544405379
 31
0.0
  0
MTEXT
  5
162
330
152
100
AcDbEntity
  8
DIMS
100
AcDbMText
 10
4.0082228844
 20
17.0746425526
 30
0.0039370079
 40
0.3125
 41
0.0
 71
     1
 72
     1
  1
19
  7
SLDTEXTSTYLE0
  0
MTEXT
  5
163
330
152
100
AcDbEntity
  8
DIMS
100
AcDbMText
 10
4.5597275101
 20
17.2875404732
 30
0.0039370079
 40
0.3125
 41
0.0
 71
     1
 72
     1
  1
5
  7
SLDTEXTSTYLE0
  0
MTEXT
  5
164
330
152
100
AcDbEntity
  8
DIMS
100
AcDbMText
 10
4.5597275101
 20
16.8620196248
 30
0.0039370079
 40
0.3125
 41
0.0
 71
     1
 72
     1
  1
8
  7
SLDTEXTSTYLE0
  0
MTEXT
  5
165
330
152
100
AcDbEntity
  8
DIMS
100
AcDbMText
 10
4.8797506631
 20
17.0746425526
 30
0.0039370079
 40
0.3125
 41
0.0
 71
     1
 72
     1
  1
"
  7
SLDTEXTSTYLE0
  0
MTEXT
  5
166
330
152
100
AcDbEntity
  8
DIMS
100
AcDbMText
 10
4.1708386259
 20
16.326718696
 30
0.0039370079
 40
0.3125
 41
0.0
 71
     1
 72
     1
  1
499
  7
SLDTEXTSTYLE0
  0
ENDBLK
  5
154
330
152
100
AcDbEntity
  8
0
100
AcDbBlockEnd
  0
BLOCK
  5
168
330
167
100
AcDbEntity
  8
0
100
AcDbBlockBegin
  2
SW_NOTE_0
 70
     0
 10
0.0
 20
0.0
 30
0.0
  3
SW_NOTE_0
  1

  0
MTEXT
  5
16A
330
167
100
AcDbEntity
  8
NOTES
 62
     0
100
AcDbMText
 10
0.0
 20
0.2417002012
 30
0.0
 40
0.1875
 41
0.0
 71
     1
 72
     1
  1
NOTES:
  7
SLDTEXTSTYLE0
  0
MTEXT
  5
16B
330
167
100
AcDbEntity
  8
NOTES
 62
     0
100
AcDbMText
 10
0.3937007786
 20
-0.2582997928
 30
0.0
 40
0.1875
 41
0.0
 71
     1
 72
     1
  1
THOROUGHLY READ ALL  INSTALLATION INSTRUCTIONS BEFORE CUTTING COUNTERTOP.
  7
SLDTEXTSTYLE0
  0
MTEXT
  5
16C
330
167
100
AcDbEntity
  8
NOTES
 62
     0
100
AcDbMText
 10
0.0
 20
-0.2582997928
 30
0.0
 40
0.1875
 41
0.0
 71
     1
 72
     1
  1
1.
  7
SLDTEXTSTYLE0
  0
MTEXT
  5
16D
330
167
100
AcDbEntity
  8
NOTES
 62
     0
100
AcDbMText
 10
0.0
 20
-0.7582997867
 30
0.0
 40
0.1875
 41
0.0
 71
     1
 72
     1
  1
2.  DIMENSIONS ARE IN INCHES [MM].
  7
SLDTEXTSTYLE0
  0
MTEXT
  5
16E
330
167
100
AcDbEntity
  8
NOTES
 62
     0
100
AcDbMText
 10
0.0
 20
-1.5082997776
 30
0.0
 40
0.1875
 41
0.0
 71
     1
 72
     1
  1
PLEASE CHECK TEMPLATE AGAINST PHYSICAL SINK FOR MOST ACCURATE CUT.
  7
SLDTEXTSTYLE0
  0
MTEXT
  5
16F
330
167
100
AcDbEntity
  8
NOTES
 62
     0
100
AcDbMText
 10
0.0
 20
-2.5082997656
 30
0.0
 40
0.1875
 41
0.0
 71
     1
 72
     1
  1
NOTAS:
  7
SLDTEXTSTYLE0
  0
MTEXT
  5
170
330
167
100
AcDbEntity
  8
NOTES
 62
     0
100
AcDbMText
 10
0.0
 20
-3.0082997595
 30
0.0
 40
0.1875
 41
0.0
 71
     1
 72
     1
  1
1.  LEA ATENTAMENTE LAS INSTRUCCIONES DE INSTALACIÓN ANTES DE CORTAR LA ENCIMERA.
  7
SLDTEXTSTYLE0
  0
MTEXT
  5
171
330
167
100
AcDbEntity
  8
NOTES
 62
     0
100
AcDbMText
 10
0.0
 20
-3.5082997535
 30
0.0
 40
0.1875
 41
0.0
 71
     1
 72
     1
  1
2.  DIMENSIONES EN PULGADAS [MM].
  7
SLDTEXTSTYLE0
  0
MTEXT
  5
172
330
167
100
AcDbEntity
  8
NOTES
 62
     0
100
AcDbMText
 10
0.0
 20
-4.2582997444
 30
0.0
 40
0.1875
 41
0.0
 71
     1
 72
     1
  1
POR FAVOR COMPRUEBE PLANTILLA CONTRA FREGADERO FÍSICO PARA CORTE MÁS EXACTO.
  7
SLDTEXTSTYLE0
  0
ENDBLK
  5
169
330
167
100
AcDbEntity
  8
0
100
AcDbBlockEnd
  0
BLOCK
  5
175
330
174
100
AcDbEntity
  8
0
100
AcDbBlockBegin
  2
SW_NOTE_1
 70
     0
 10
0.0
 20
0.0
 30
0.0
  3
SW_NOTE_1
  1

  0
MTEXT
  5
177
330
174
100
AcDbEntity
  8
NOTES
 62
     0
100
AcDbMText
 10
6.8619791667
 20
1.0742231165
 30
0.0
 40
0.8333333333
 41
0.0
 71
     2
 72
     1
  1
TEMPLATE #: 1000001391
  7
SLDTEXTSTYLE0
  0
MTEXT
  5
178
330
174
100
AcDbEntity
  8
NOTES
 62
     0
100
AcDbMText
 10
6.8814668443
 20
-0.0184439723
 30
0.0
 40
0.4166666667
 41
0.0
 71
     2
 72
     1
  1
REVEAL RIGHT UNDERMOUNT TEMPLATE 32" X 21" W/ DANISH SIDES
  7
SLDTEXTSTYLE0
  0
MTEXT
  5
179
330
174
100
AcDbEntity
  8
NOTES
 62
     0
100
AcDbMText
 10
6.8202648951
 20
-0.5739995303
 30
0.0
 40
0.4166666667
 41
0.0
 71
     2
 72
     1
  1
*SMALL BOWL ON RIGHT
  7
SLDTEXTSTYLE0
  0
ENDBLK
  5
176
330
174
100
AcDbEntity
  8
0
100
AcDbBlockEnd
  0
BLOCK
  5
17C
330
17B
100
AcDbEntity
  8
0
100
AcDbBlockBegin
  2
SW_NOTE_2
 70
     0
 10
0.0
 20
0.0
 30
0.0
  3
SW_NOTE_2
  1

  0
MTEXT
  5
17E
330
17B
100
AcDbEntity
  8
NOTES
 62
     0
100
AcDbMText
 10
0.0108346848
 20
0.3249509646
 30
0.0
 40
0.25
 41
0.0
 71
     3
 72
     1
  1
1/2" REVEAL
  7
SLDTEXTSTYLE0
  0
MTEXT
  5
17F
330
17B
100
AcDbEntity
  8
NOTES
 62
     0
100
AcDbMText
 10
0.0167954569
 20
-0.0083823647
 30
0.0
 40
0.25
 41
0.0
 71
     3
 72
     1
  1
[12.7 REVELADO]
  7
SLDTEXTSTYLE0
  0
ENDBLK
  5
17D
330
17B
100
AcDbEntity
  8
0
100
AcDbBlockEnd
  0
BLOCK
  5
184
330
183
100
AcDbEntity
  8
0
100
AcDbBlockBegin
  2
SW_NOTE_3
 70
     0
 10
0.0
 20
0.0
 30
0.0
  3
SW_NOTE_3
  1

  0
MTEXT
  5
186
330
183
100
AcDbEntity
  8
NOTES
 62
     0
100
AcDbMText
 10
-1.0651582157
 20
0.8243319013
 30
0.0
 40
0.25
 41
0.0
 71
     2
 72
     1
  1
TEMPLATE
  7
SLDTEXTSTYLE0
  0
MTEXT
  5
187
330
183
100
AcDbEntity
  8
NOTES
 62
     0
100
AcDbMText
 10
-1.0613965967
 20
0.490998572
 30
0.0
 40
0.25
 41
0.0
 71
     2
 72
     1
  1
CENTERLINE
  7
SLDTEXTSTYLE0
  0
MTEXT
  5
188
330
183
100
AcDbEntity
  8
NOTES
 62
     0
100
AcDbMText
 10
-1.0612519657
 20
-0.1756680866
 30
0.0
 40
0.25
 41
0.0
 71
     2
 72
     1
  1
PLANTILLA
  7
SLDTEXTSTYLE0
  0
MTEXT
  5
189
330
183
100
AcDbEntity
  8
NOTES
 62
     0
100
AcDbMText
 10
-1.0648688589
 20
-0.5090014159
 30
0.0
 40
0.25
 41
0.0
 71
     2
 72
     1
  1
CENTRAL
  7
SLDTEXTSTYLE0
  0
ENDBLK
  5
185
330
183
100
AcDbEntity
  8
0
100
AcDbBlockEnd
  0
ENDSEC
  0
SECTION
  2
ENTITIES
  0
LINE
  5
E7
330
1F
100
AcDbEntity
  8
OBJECTS
100
AcDbLine
 10
21.9564105369
 20
26.1936074849
 30
0.0
 11
21.9564105369
 21
23.5282047673
 31
0.0
  0
LINE
  5
E8
330
1F
100
AcDbEntity
  8
DIMS
  6
CONTINUOUS
 62
     5
100
AcDbLine
 10
6.8928866429
 20
16.5777316661
 30
0.0
 11
9.7919058196
 21
16.5777316661
 31
0.0
  0
LINE
  5
E9
330
1F
100
AcDbEntity
  8
DIMS
  6
CONTINUOUS
 62
     5
100
AcDbLine
 10
36.8263879387
 20
16.5777316661
 30
0.0
 11
33.4569632
 21
16.5777316661
 31
0.0
  0
LINE
  5
EA
330
1F
100
AcDbEntity
  8
DIMS
  6
CONTINUOUS
 62
     5
100
AcDbLine
 10
21.8833801092
 20
6.7566413392
 30
0.0
 11
21.8833801092
 21
8.8997535931
 31
0.0
  0
LINE
  5
EB
330
1F
100
AcDbEntity
  8
DIMS
  6
CONTINUOUS
 62
     1
100
AcDbLine
 10
32.896575558
 20
6.7566413392
 30
0.0
 11
17.8810546577
 21
6.7566413392
 31
0.0
  0
LINE
  5
EC
330
1F
100
AcDbEntity
  8
DIMS
  6
CONTINUOUS
 62
     1
100
AcDbLine
 10
29.031169658
 20
21.8816416392
 30
0.0
 11
32.896575558
 21
21.8816416392
 31
0.0
  0
ARC
  5
ED
330
1F
100
AcDbEntity
  8
SLD-0
  6
CONTINUOUS
 62
     1
100
AcDbCircle
 10
36.4231763826
 20
18.1474676364
 30
0.0
 40
0.4999999665402233
100
AcDbArc
 50
4.768143088
 51
6.6938259001
  0
ARC
  5
EE
330
1F
100
AcDbEntity
  8
SLD-0
  6
CONTINUOUS
 62
     1
100
AcDbCircle
 10
33.4735374159
 20
24.1452576392
 30
0.0
 40
0.4999999999998918
100
AcDbArc
 50
45.680941
 51
47.679004
  0
ARC
  5
EF
330
1F
100
AcDbEntity
  8
DIMS
  6
CONTINUOUS
 62
     1
100
AcDbCircle
 10
25.3228261252
 20
24.1452569618
 30
0.0
 40
0.500001003859741
100
AcDbArc
 50
45.6809787354
 51
47.6790017265
  0
ARC
  5
F0
330
1F
100
AcDbEntity
  8
DIMS
  6
CONTINUOUS
 62
     1
100
AcDbCircle
 10
21.2105536385
 20
19.6292545036
 30
0.0
 40
6.607788099700333
100
AcDbArc
 50
47.6790017264
 51
82.9010201352
  0
ARC
  5
F1
330
1F
100
AcDbEntity
  8
DIMS
  6
CONTINUOUS
 62
     1
100
AcDbCircle
 10
17.8810546645
 20
-14.1008272985
 30
0.0
 40
40.5
100
AcDbArc
 50
84.1241536613
 51
95.3989614094
  0
ARC
  5
F2
330
1F
100
AcDbEntity
  8
DIMS
  6
CONTINUOUS
 62
     1
100
AcDbCircle
 10
14.551555658
 20
19.6292546392
 30
0.0
 40
6.607788100000023
100
AcDbArc
 50
94.1757808193
 51
132.3971797004
  0
ARC
  5
F3
330
1F
100
AcDbEntity
  8
DIMS
  6
CONTINUOUS
 62
     1
100
AcDbCircle
 10
17.436109658
 20
16.9801126392
 30
0.0
 40
10.51473400000001
100
AcDbArc
 50
134.2719131808
 51
173.3522365021
  0
ARC
  5
F4
330
1F
100
AcDbEntity
  8
DIMS
  6
CONTINUOUS
 62
     1
100
AcDbCircle
 10
43.271630058
 20
15.1627876392
 30
0.0
 40
36.40625000000003
100
AcDbArc
 50
175.2186848285
 51
187.546766883
  0
ARC
  5
F5
330
1F
100
AcDbEntity
  8
DIMS
  6
CONTINUOUS
 62
     1
100
AcDbCircle
 10
10.9602078548
 20
10.8820744473
 30
0.0
 40
3.812500442426665
100
AcDbArc
 50
187.546766883
 51
264.8221579855
  0
ARC
  5
F6
330
1F
100
AcDbEntity
  8
DIMS
  6
CONTINUOUS
 62
     1
100
AcDbCircle
 10
17.881054658
 20
87.2566413392
 30
0.0
 40
80.5000000000013
100
AcDbArc
 50
264.8221603781
 51
265.84187
  0
ARC
  5
F7
330
1F
100
AcDbEntity
  8
DIMS
  6
CONTINUOUS
 62
     1
100
AcDbCircle
 10
17.8810547462
 20
87.2566430126
 30
0.0
 40
80.50000167535997
100
AcDbArc
 50
265.8418700238
 51
268.125179798
  0
ARC
  5
F8
330
1F
100
AcDbEntity
  8
DIMS
  6
CONTINUOUS
 62
     1
100
AcDbCircle
 10
17.881054658
 20
87.2566413392
 30
0.0
 40
80.50000000000138
100
AcDbArc
 50
268.1251798218
 51
269.9999999998
  0
ARC
  5
F9
330
1F
100
AcDbEntity
  8
DIMS
  6
CONTINUOUS
 62
     1
100
AcDbCircle
 10
32.896575558
 20
10.5691413709
 30
0.0
 40
3.812500031749
100
AcDbArc
 50
270.0
 51
328.4172472881
  0
ARC
  5
FA
330
1F
100
AcDbEntity
  8
DIMS
  6
CONTINUOUS
 62
     1
100
AcDbCircle
 10
33.1627895309
 20
10.4054758875
 30
0.0
 40
3.499999999999998
100
AcDbArc
 50
328.4172472878
 51
353.1628714964
  0
ARC
  5
FB
330
1F
100
AcDbEntity
  8
DIMS
  6
CONTINUOUS
 62
     1
100
AcDbCircle
 10
0.5235898196
 20
14.3189178982
 30
0.0
 40
36.37297349132731
100
AcDbArc
 50
353.1628714965
 51
353.8386092282
  0
ARC
  5
FC
330
1F
100
AcDbEntity
  8
DIMS
  6
CONTINUOUS
 62
     1
100
AcDbCircle
 10
0.5215756579
 20
14.3191413392
 30
0.0
 40
36.37500000007117
100
AcDbArc
 50
353.8385998222
 51
6.8370962481
  0
ARC
  5
FD
330
1F
100
AcDbEntity
  8
DIMS
  6
CONTINUOUS
 62
     1
100
AcDbCircle
 10
33.162788352
 20
18.2328060666
 30
0.0
 40
3.500001327232253
100
AcDbArc
 50
6.8370962481
 51
31.5825986653
  0
ARC
  5
FE
330
1F
100
AcDbEntity
  8
DIMS
  6
CONTINUOUS
 62
     1
100
AcDbCircle
 10
32.8965757612
 20
18.0691424192
 30
0.0
 40
3.812499219977648
100
AcDbArc
 50
31.5825986653
 51
90.0000030544
  0
ARC
  5
FF
330
1F
100
AcDbEntity
  8
DIMS
  6
CONTINUOUS
 62
     1
100
AcDbCircle
 10
29.031169658
 20
24.3816415465
 30
0.0
 40
2.499999907335505
100
AcDbArc
 50
214.6598894279
 51
270.0
  0
ARC
  5
100
330
1F
100
AcDbEntity
  8
DIMS
  6
CONTINUOUS
 62
     1
100
AcDbCircle
 10
18.3259997082
 20
16.980112581
 30
0.0
 40
10.51473384643124
100
AcDbArc
 50
34.6598894284
 51
45.6809420092
  0
INSERT
  5
101
330
1F
100
AcDbEntity
  8
BLOCKS
100
AcDbBlockReference
  2
REVEAL-__500
 10
-10.2455612949
 20
-20.0034521063
 30
0.0
 41
1.5
 42
1.5
 43
1.5
  0
DIMENSION
  5
102
330
1F
100
AcDbEntity
  8
DIMS
100
AcDbDimension
  2
_D
 10
29.031169658
 20
24.3816415465
 30
0.0
 11
25.1192510311
 21
21.1889919544
 31
0.0
 70
   164
  1
<>
  3
SLDDIMSTYLE0
100
AcDbRadialDimension
 15
27.2634027706
 25
22.6138746591
 35
0.0
 40
0.0
  0
DIMENSION
  5
116
330
1F
100
AcDbEntity
  8
DIMS
100
AcDbDimension
  2
_D_1
 10
30.8222572343
 20
6.7566413392
 30
0.0
 11
30.8222572343
 21
14.3191414892
 31
0.0
 70
   160
  1
<>
  3
SLDDIMSTYLE1
100
AcDbAlignedDimension
 13
29.031169658
 23
21.8816416392
 33
0.0
 14
32.896575558
 24
6.7566413392
 34
0.0
 50
90.0
100
AcDbRotatedDimension
  0
DIMENSION
  5
12B
330
1F
100
AcDbEntity
  8
DIMS
100
AcDbDimension
  2
_D_2
 10
10.9602078548
 20
10.8820744473
 30
0.0
 11
9.1566888616
 21
10.3853120665
 31
0.0
 70
   164
  1
<>
  3
SLDDIMSTYLE0
100
AcDbRadialDimension
 15
7.2845888839
 25
9.8696591157
 35
0.0
 40
0.0
  0
DIMENSION
  5
13E
330
1F
100
AcDbEntity
  8
DIMS
100
AcDbDimension
  2
_D_3
 10
6.865380058
 20
4.3425547535
 30
0.0
 11
21.880977858
 21
4.3425547535
 31
0.0
 70
   160
  1
<>
  3
SLDDIMSTYLE2
100
AcDbAlignedDimension
 13
36.896575658
 23
14.3191413392
 33
0.0
 14
6.865380058
 24
15.1627876392
 34
0.0
 50
0.0
100
AcDbRotatedDimension
  0
DIMENSION
  5
151
330
1F
100
AcDbEntity
  8
DIMS
100
AcDbDimension
  2
_D_4
 10
4.5180608347
 20
6.7566413392
 30
0.0
 11
4.5180608347
 21
16.5779070203
 31
0.0
 70
   160
  1
<>
  3
SLDDIMSTYLE1
100
AcDbAlignedDimension
 13
17.8810546645
 23
26.3991727015
 33
0.0
 14
17.8810546577
 24
6.7566413392
 34
0.0
 50
90.0
100
AcDbRotatedDimension
  0
INSERT
  5
173
330
1F
100
AcDbEntity
  8
NOTES
100
AcDbBlockReference
  2
SW_NOTE_0
 10
15.9314264929
 20
16.9476555536
 30
0.0
  0
INSERT
  5
17A
330
1F
100
AcDbEntity
  8
NOTES
100
AcDbBlockReference
  2
SW_NOTE_1
 10
14.2427943272
 20
18.1384520686
 30
0.0
  0
INSERT
  5
180
102
{ACAD_REACTORS
330
182
102
}
330
1F
100
AcDbEntity
  8
NOTES
100
AcDbBlockReference
  2
SW_NOTE_2
 10
20.1764488109
 20
25.202423509
 30
0.0
  0
LEADER
  5
182
330
1F
100
AcDbEntity
  8
NOTES
100
AcDbLeader
  3
SLDDIMSTYLE3
 73
     2
 76
     3
 10
21.3519016632
 20
26.2501729507
 30
0.0
 10
20.4264488109
 20
25.202423509
 30
0.0
 10
20.1764488109
 20
25.202423509
 30
0.0
340
180
1001
ACAD
1000
DSTYLE
1002
{
1070
     6
1000

1002
}
  0
INSERT
  5
18A
102
{ACAD_REACTORS
330
18B
330
18C
102
}
330
1F
100
AcDbEntity
  8
NOTES
100
AcDbBlockReference
  2
SW_NOTE_3
 10
13.9703868538
 20
12.447951084
 30
0.0
  0
LEADER
  5
18B
330
1F
100
AcDbEntity
  8
NOTES
100
AcDbLeader
  3
SLDDIMSTYLE3
 73
     2
 76
     3
 10
21.8833801092
 20
8.0264885881
 30
0.0
 10
14.2203868538
 20
12.447951084
 30
0.0
 10
13.9703868538
 20
12.447951084
 30
0.0
340
18A
1001
ACAD
1000
DSTYLE
1002
{
1070
     6
1000

1002
}
  0
LEADER
  5
18C
330
1F
100
AcDbEntity
  8
NOTES
100
AcDbLeader
  3
SLDDIMSTYLE3
 73
     2
 76
     3
 10
8.9289505381
 20
16.5777316661
 30
0.0
 10
11.5711945575
 20
12.447951084
 30
0.0
 10
11.8211945575
 20
12.447951084
 30
0.0
340
18A
212
-2.149192296362349
222
0.0
232
0.0
1001
ACAD
1000
DSTYLE
1002
{
1070
     6
1000

1002
}
  0
MTEXT
  5
18D
330
1F
100
AcDbEntity
  8
NOTES
100
AcDbMText
 10
27.5734732726
 20
8.2113448243
 30
0.0
 40
0.2083333333
 41
0.0
 71
     1
 72
     1
  1
REV_E  8/16
  7
SLDTEXTSTYLE0
  0
ENDSEC
  0
SECTION
  2
OBJECTS
  0
DICTIONARY
  5
C
330
0
100
AcDbDictionary
  3
ACAD_GROUP
350
D
  3
ACAD_MLINESTYLE
350
17
1001
ACAD
1000
TREAT_AS_HARD
1070
     0
  0
DICTIONARY
  5
D
102
{ACAD_REACTORS
330
C
102
}
330
C
100
AcDbDictionary
1001
ACAD
1000
TREAT_AS_HARD
1070
     0
  0
DICTIONARY
  5
17
102
{ACAD_REACTORS
330
C
102
}
330
C
100
AcDbDictionary
  3
STANDARD
350
18
1001
ACAD
1000
TREAT_AS_HARD
1070
     0
  0
MLINESTYLE
  5
18
102
{ACAD_REACTORS
330
17
102
}
330
17
100
AcDbMlineStyle
  2
Standard
 70
     0
  3

 62
   256
 51
90.0
 52
90.0
 71
     2
 49
0.5
 62
   256
  6
BYLAYER
 49
-0.5
 62
   256
  6
BYLAYER
  0
ENDSEC
  0
EOF
