  0
SECTION
  2
HEADER
  9
$ACADVER
  1
AC1015
  9
$ACADMAINTVER
 70
     6
  9
$DWGCODEPAGE
  3
ANSI_1252
  9
$INSBASE
 10
0.0
 20
0.0
 30
0.0
  9
$EXTMIN
 10
0.0
 20
0.0
 30
0.0
  9
$EXTMAX
 10
34.0
 20
22.0
 30
0.0
  9
$LIMMIN
 10
0.0
 20
0.0
  9
$LIMMAX
 10
34.0
 20
22.0
  9
$ORTHOMODE
 70
     0
  9
$REGENMODE
 70
     1
  9
$FILLMODE
 70
     1
  9
$QTEXTMODE
 70
     0
  9
$MIRRTEXT
 70
     1
  9
$LTSCALE
 40
1.0
  9
$ATTMODE
 70
     1
  9
$TEXTSIZE
 40
0.2777777778
  9
$TRACEWID
 40
0.05
  9
$TEXTSTYLE
  7
STANDARD
  9
$CLAYER
  8
0
  9
$CELTYPE
  6
ByLayer
  9
$CECOLOR
 62
   256
  9
$CELTSCALE
 40
1.0
  9
$DISPSILH
 70
     0
  9
$DIMSCALE
 40
1.0
  9
$DIMASZ
 40
0.3640136719
  9
$DIMEXO
 40
0.05
  9
$DIMDLI
 40
0.38
  9
$DIMRND
 40
0.0
  9
$DIMDLE
 40
0.0
  9
$DIMEXE
 40
0.125
  9
$DIMTP
 40
0.0
  9
$DIMTM
 40
0.0
  9
$DIMTXT
 40
0.5
  9
$DIMCEN
 40
0.09
  9
$DIMTSZ
 40
0.0
  9
$DIMTOL
 70
     0
  9
$DIMLIM
 70
     0
  9
$DIMTIH
 70
     1
  9
$DIMTOH
 70
     1
  9
$DIMSE1
 70
     0
  9
$DIMSE2
 70
     0
  9
$DIMTAD
 70
     0
  9
$DIMZIN
 70
     0
  9
$DIMBLK
  1

  9
$DIMASO
 70
     1
  9
$DIMSHO
 70
     1
  9
$DIMPOST
  1

  9
$DIMAPOST
  1

  9
$DIMALT
 70
     0
  9
$DIMALTD
 70
     2
  9
$DIMALTF
 40
25.4
  9
$DIMLFAC
 40
1.0
  9
$DIMTOFL
 70
     0
  9
$DIMTVP
 40
0.0
  9
$DIMTIX
 70
     0
  9
$DIMSOXD
 70
     0
  9
$DIMSAH
 70
     0
  9
$DIMBLK1
  1

  9
$DIMBLK2
  1

  9
$DIMSTYLE
  2
Standard
  9
$DIMCLRD
 70
     0
  9
$DIMCLRE
 70
     0
  9
$DIMCLRT
 70
     0
  9
$DIMTFAC
 40
1.0
  9
$DIMGAP
 40
0.06
  9
$DIMJUST
 70
     0
  9
$DIMSD1
 70
     0
  9
$DIMSD2
 70
     0
  9
$DIMTOLJ
 70
     1
  9
$DIMTZIN
 70
     0
  9
$DIMALTZ
 70
     0
  9
$DIMALTTZ
 70
     0
  9
$DIMUPT
 70
     0
  9
$DIMDEC
 70
     3
  9
$DIMTDEC
 70
     3
  9
$DIMALTU
 70
     2
  9
$DIMALTTD
 70
     2
  9
$DIMTXSTY
  7
STANDARD
  9
$DIMAUNIT
 70
     0
  9
$DIMADEC
 70
     2
  9
$DIMALTRND
 40
0.0
  9
$DIMAZIN
 70
     0
  9
$DIMDSEP
 70
    46
  9
$DIMATFIT
 70
     3
  9
$DIMFRAC
 70
     0
  9
$DIMLDRBLK
  1

  9
$DIMLUNIT
 70
     2
  9
$DIMLWD
 70
    -2
  9
$DIMLWE
 70
    -2
  9
$DIMTMOVE
 70
     0
  9
$LUNITS
 70
     2
  9
$LUPREC
 70
     3
  9
$SKETCHINC
 40
0.1
  9
$FILLETRAD
 40
0.5
  9
$AUNITS
 70
     0
  9
$AUPREC
 70
     2
  9
$MENU
  1
.
  9
$ELEVATION
 40
0.0
  9
$PELEVATION
 40
0.0
  9
$THICKNESS
 40
0.0
  9
$LIMCHECK
 70
     0
  9
$CHAMFERA
 40
0.5
  9
$CHAMFERB
 40
0.5
  9
$CHAMFERC
 40
1.0
  9
$CHAMFERD
 40
0.0
  9
$SKPOLY
 70
     0
  9
$TDCREATE
 40
2456827.595477998
  9
$TDUCREATE
 40
2456827.803811331
  9
$TDUPDATE
 40
2456827.595478345
  9
$TDUUPDATE
 40
2456827.803811678
  9
$TDINDWG
 40
0.0000000116
  9
$TDUSRTIMER
 40
0.0000000116
  9
$USRTIMER
 70
     1
  9
$ANGBASE
 50
0.0
  9
$ANGDIR
 70
     0
  9
$PDMODE
 70
     0
  9
$PDSIZE
 40
-1.0
  9
$PLINEWID
 40
0.0
  9
$SPLFRAME
 70
     0
  9
$SPLINETYPE
 70
     6
  9
$SPLINESEGS
 70
     8
  9
$HANDSEED
  5
B7
  9
$SURFTAB1
 70
     6
  9
$SURFTAB2
 70
     6
  9
$SURFTYPE
 70
     6
  9
$SURFU
 70
     6
  9
$SURFV
 70
     6
  9
$UCSBASE
  2

  9
$UCSNAME
  2

  9
$UCSORG
 10
0.0
 20
0.0
 30
0.0
  9
$UCSXDIR
 10
1.0
 20
0.0
 30
0.0
  9
$UCSYDIR
 10
0.0
 20
1.0
 30
0.0
  9
$UCSORTHOREF
  2

  9
$UCSORTHOVIEW
 70
     0
  9
$UCSORGTOP
 10
0.0
 20
0.0
 30
0.0
  9
$UCSORGBOTTOM
 10
0.0
 20
0.0
 30
0.0
  9
$UCSORGLEFT
 10
0.0
 20
0.0
 30
0.0
  9
$UCSORGRIGHT
 10
0.0
 20
0.0
 30
0.0
  9
$UCSORGFRONT
 10
0.0
 20
0.0
 30
0.0
  9
$UCSORGBACK
 10
0.0
 20
0.0
 30
0.0
  9
$PUCSBASE
  2

  9
$PUCSNAME
  2

  9
$PUCSORG
 10
0.0
 20
0.0
 30
0.0
  9
$PUCSXDIR
 10
1.0
 20
0.0
 30
0.0
  9
$PUCSYDIR
 10
0.0
 20
1.0
 30
0.0
  9
$PUCSORTHOREF
  2

  9
$PUCSORTHOVIEW
 70
     0
  9
$PUCSORGTOP
 10
0.0
 20
0.0
 30
0.0
  9
$PUCSORGBOTTOM
 10
0.0
 20
0.0
 30
0.0
  9
$PUCSORGLEFT
 10
0.0
 20
0.0
 30
0.0
  9
$PUCSORGRIGHT
 10
0.0
 20
0.0
 30
0.0
  9
$PUCSORGFRONT
 10
0.0
 20
0.0
 30
0.0
  9
$PUCSORGBACK
 10
0.0
 20
0.0
 30
0.0
  9
$USERI1
 70
     0
  9
$USERI2
 70
     0
  9
$USERI3
 70
     0
  9
$USERI4
 70
     0
  9
$USERI5
 70
     0
  9
$USERR1
 40
0.0
  9
$USERR2
 40
0.0
  9
$USERR3
 40
0.0
  9
$USERR4
 40
0.0
  9
$USERR5
 40
0.0
  9
$WORLDVIEW
 70
     1
  9
$SHADEDGE
 70
     3
  9
$SHADEDIF
 70
    70
  9
$TILEMODE
 70
     1
  9
$MAXACTVP
 70
    64
  9
$PINSBASE
 10
0.0
 20
0.0
 30
0.0
  9
$PLIMCHECK
 70
     0
  9
$PEXTMIN
 10
1.0000000000E+20
 20
1.0000000000E+20
 30
1.0000000000E+20
  9
$PEXTMAX
 10
-1.0000000000E+20
 20
-1.0000000000E+20
 30
-1.0000000000E+20
  9
$PLIMMIN
 10
0.0
 20
0.0
  9
$PLIMMAX
 10
12.0
 20
9.0
  9
$UNITMODE
 70
     0
  9
$VISRETAIN
 70
     1
  9
$PLINEGEN
 70
     0
  9
$PSLTSCALE
 70
     1
  9
$TREEDEPTH
 70
  3020
  9
$CMLSTYLE
  2
Standard
  9
$CMLJUST
 70
     0
  9
$CMLSCALE
 40
1.0
  9
$PROXYGRAPHICS
 70
     1
  9
$MEASUREMENT
 70
     0
  9
$CELWEIGHT
370
    -1
  9
$ENDCAPS
280
     0
  9
$JOINSTYLE
280
     0
  9
$LWDISPLAY
290
     1
  9
$INSUNITS
 70
     1
  9
$HYPERLINKBASE
  1

  9
$STYLESHEET
  1

  9
$XEDIT
290
     1
  9
$CEPSNTYPE
380
     0
  9
$PSTYLEMODE
290
     1
  9
$FINGERPRINTGUID
  2
{8B1CE611-EEB6-428F-B7EA-9343A9DF7A74}
  9
$VERSIONGUID
  2
{FAEB1C32-E019-11D5-929B-00C0DF256EC4}
  9
$EXTNAMES
290
     1
  9
$PSVPSCALE
 40
0.0
  9
$OLESTARTUP
290
     0
  0
ENDSEC
  0
SECTION
  2
CLASSES
  0
CLASS
  1
ACDBDICTIONARYWDFLT
  2
AcDbDictionaryWithDefault
  3
ObjectDBX Classes
 90
        0
280
     0
281
     0
  0
CLASS
  1
VISUALSTYLE
  2
AcDbVisualStyle
  3
ObjectDBX Classes
 90
     4095
280
     0
281
     0
  0
CLASS
  1
MATERIAL
  2
AcDbMaterial
  3
ObjectDBX Classes
 90
     1153
280
     0
281
     0
  0
CLASS
  1
ACDBPLACEHOLDER
  2
AcDbPlaceHolder
  3
ObjectDBX Classes
 90
        0
280
     0
281
     0
  0
CLASS
  1
LAYOUT
  2
AcDbLayout
  3
ObjectDBX Classes
 90
        0
280
     0
281
     0
  0
ENDSEC
  0
SECTION
  2
TABLES
  0
TABLE
  2
VPORT
  5
8
330
0
100
AcDbSymbolTable
 70
     1
  0
VPORT
  5
29
330
8
100
AcDbSymbolTableRecord
100
AcDbViewportTableRecord
  2
*Active
 70
     0
 10
0.0
 20
0.0
 11
1.0
 21
1.0
 12
17.0
 22
11.0
 13
0.0
 23
0.0
 14
0.5
 24
0.5
 15
0.5
 25
0.5
 16
0.0
 26
0.0
 36
1.0
 17
0.0
 27
0.0
 37
0.0
 40
22.0
 41
1.5454545455
 42
50.0
 43
0.0
 44
0.0
 50
0.0
 51
0.0
 71
     0
 72
  2000
 73
     1
 74
     3
 75
     0
 76
     0
 77
     0
 78
     0
281
     0
 65
     1
110
0.0
120
0.0
130
0.0
111
1.0
121
0.0
131
0.0
112
0.0
122
1.0
132
0.0
 79
     0
146
0.0
  0
ENDTAB
  0
TABLE
  2
LTYPE
  5
5
330
0
100
AcDbSymbolTable
 70
     6
  0
LTYPE
  5
14
330
5
100
AcDbSymbolTableRecord
100
AcDbLinetypeTableRecord
  2
ByBlock
 70
     0
  3

 72
    65
 73
     0
 40
0.0
  0
LTYPE
  5
15
330
5
100
AcDbSymbolTableRecord
100
AcDbLinetypeTableRecord
  2
ByLayer
 70
     0
  3

 72
    65
 73
     0
 40
0.0
  0
LTYPE
  5
16
330
5
100
AcDbSymbolTableRecord
100
AcDbLinetypeTableRecord
  2
Continuous
 70
     0
  3
Solid line
 72
    65
 73
     0
 40
0.0
  0
LTYPE
  5
3F
330
5
100
AcDbSymbolTableRecord
100
AcDbLinetypeTableRecord
  2
HIDDEN
 70
     0
  3
Hidden __ __ __ __ __ __ __ __ __ __ __ __ __ __
 72
    65
 73
     2
 40
0.075
 49
0.05
 74
     0
 49
-0.025
 74
     0
  0
LTYPE
  5
40
330
5
100
AcDbSymbolTableRecord
100
AcDbLinetypeTableRecord
  2
PHANTOM
 70
     0
  3
Phantom ______  __  __  ______  __  __  ______
 72
    65
 73
     6
 40
0.5
 49
0.25
 74
     0
 49
-0.05
 74
     0
 49
0.05
 74
     0
 49
-0.05
 74
     0
 49
0.05
 74
     0
 49
-0.05
 74
     0
  0
LTYPE
  5
41
330
5
100
AcDbSymbolTableRecord
100
AcDbLinetypeTableRecord
  2
CENTER
 70
     0
  3
Center ____ _ ____ _ ____ _ ____ _ ____ _ ____
 72
    65
 73
     4
 40
0.4
 49
0.25
 74
     0
 49
-0.05
 74
     0
 49
0.05
 74
     0
 49
-0.05
 74
     0
  0
LTYPE
  5
42
330
5
100
AcDbSymbolTableRecord
100
AcDbLinetypeTableRecord
  2
CENTERX2
 70
     0
  3
Center (2x) ________  __  ________  __  _____
 72
    65
 73
     4
 40
0.8
 49
0.5
 74
     0
 49
-0.1
 74
     0
 49
0.1
 74
     0
 49
-0.1
 74
     0
  0
LTYPE
  5
43
330
5
100
AcDbSymbolTableRecord
100
AcDbLinetypeTableRecord
  2
DOT2
 70
     0
  3
Dot (.5x) ........................................
 72
    65
 73
     2
 40
0.025
 49
0.0
 74
     0
 49
-0.025
 74
     0
  0
ENDTAB
  0
TABLE
  2
LAYER
  5
2
330
0
100
AcDbSymbolTable
 70
     7
  0
LAYER
  5
10
330
2
100
AcDbSymbolTableRecord
100
AcDbLayerTableRecord
  2
0
 70
     0
 62
     7
  6
Continuous
370
    -3
390
F
  0
LAYER
  5
44
330
2
100
AcDbSymbolTableRecord
100
AcDbLayerTableRecord
  2
SLD-0
 70
     0
 62
   179
  6
Continuous
370
    -3
390
F
  0
LAYER
  5
45
330
2
100
AcDbSymbolTableRecord
100
AcDbLayerTableRecord
  2
OBJECTS
 70
     0
 62
     7
  6
Continuous
370
    -3
390
F
  0
LAYER
  5
46
330
2
100
AcDbSymbolTableRecord
100
AcDbLayerTableRecord
  2
DIMS
 70
     0
 62
     7
  6
Continuous
370
    -3
390
F
  0
LAYER
  5
47
330
2
100
AcDbSymbolTableRecord
100
AcDbLayerTableRecord
  2
NOTES
 70
     0
 62
     7
  6
Continuous
370
    -3
390
F
  0
LAYER
  5
48
330
2
100
AcDbSymbolTableRecord
100
AcDbLayerTableRecord
  2
IMAGES
 70
     0
 62
     7
  6
Continuous
370
    -3
390
F
  0
LAYER
  5
49
330
2
100
AcDbSymbolTableRecord
100
AcDbLayerTableRecord
  2
CENTERLINES
 70
     0
 62
     7
  6
HIDDEN
370
    -3
390
F
  0
ENDTAB
  0
TABLE
  2
STYLE
  5
3
330
0
100
AcDbSymbolTable
 70
     3
  0
STYLE
  5
11
330
3
100
AcDbSymbolTableRecord
100
AcDbTextStyleTableRecord
  2
STANDARD
 70
     0
 40
0.0
 41
1.0
 50
0.0
 71
     0
 42
0.2777777778
  3
ARIAL.TTF
  4

1001
ACAD
1000
ARIAL
1071
       34
  0
STYLE
  5
57
330
3
100
AcDbSymbolTableRecord
100
AcDbTextStyleTableRecord
  2
SLDTEXTSTYLE0
 70
     0
 40
0.0
 41
0.948
 50
0.0
 71
     0
 42
0.2
  3
ARIAL.TTF
  4

1001
ACAD
1000
Arial
1071
      290
  0
STYLE
  5
A2
330
3
100
AcDbSymbolTableRecord
100
AcDbTextStyleTableRecord
  2
SLDTEXTSTYLE1
 70
     0
 40
0.0
 41
0.948
 50
0.0
 71
     0
 42
0.2
  3
ARIALBD.TTF
  4

1001
ACAD
1000
Arial
1071
 33554722
  0
ENDTAB
  0
TABLE
  2
VIEW
  5
6
330
0
100
AcDbSymbolTable
 70
     0
  0
ENDTAB
  0
TABLE
  2
UCS
  5
7
330
0
100
AcDbSymbolTable
 70
     0
  0
ENDTAB
  0
TABLE
  2
APPID
  5
9
330
0
100
AcDbSymbolTable
 70
     1
  0
APPID
  5
12
330
9
100
AcDbSymbolTableRecord
100
AcDbRegAppTableRecord
  2
ACAD
 70
     0
  0
ENDTAB
  0
TABLE
  2
DIMSTYLE
  5
A
330
0
100
AcDbSymbolTable
 70
     4
100
AcDbDimStyleTable
  0
DIMSTYLE
105
27
330
A
100
AcDbSymbolTableRecord
100
AcDbDimStyleTableRecord
  2
Standard
 70
     0
178
     0
340
11
  0
DIMSTYLE
105
58
102
{ACAD_REACTORS
330
56
330
6C
102
}
330
A
100
AcDbSymbolTableRecord
100
AcDbDimStyleTableRecord
  2
SLDDIMSTYLE0
 70
     0
 41
0.3640136719
 44
0.0
 45
0.000000001
 78
    12
 79
     3
140
0.3640136719
147
0.091003418
148
0.000000001
170
     1
173
     1
178
     0
271
     3
272
     3
276
     2
277
     5
284
    12
340
57
  0
DIMSTYLE
105
81
102
{ACAD_REACTORS
330
80
102
}
330
A
100
AcDbSymbolTableRecord
100
AcDbDimStyleTableRecord
  2
SLDDIMSTYLE1
 70
     0
 41
0.3640136719
 44
0.0
 45
0.000000001
 78
    12
 79
     3
140
0.3640136719
141
0.0
147
0.091003418
148
0.000000001
170
     1
173
     1
178
     0
271
     3
272
     3
276
     2
277
     5
279
     1
284
    12
340
57
  0
DIMSTYLE
105
B4
330
A
100
AcDbSymbolTableRecord
100
AcDbDimStyleTableRecord
  2
SLDDIMSTYLE2
 70
     0
 41
0.3640136719
 44
0.0
 45
0.000000001
140
0.0
146
0.3640136719
147
0.0
173
     1
178
     0
271
     0
272
     0
276
     2
277
     5
340
11
  0
ENDTAB
  0
TABLE
  2
BLOCK_RECORD
  5
1
330
0
100
AcDbSymbolTable
 70
     7
  0
BLOCK_RECORD
  5
1F
330
1
100
AcDbSymbolTableRecord
100
AcDbBlockTableRecord
  2
*Model_Space
340
22
  0
BLOCK_RECORD
  5
1B
330
1
100
AcDbSymbolTableRecord
100
AcDbBlockTableRecord
  2
*Paper_Space
340
1E
  0
BLOCK_RECORD
  5
23
330
1
100
AcDbSymbolTableRecord
100
AcDbBlockTableRecord
  2
*Paper_Space0
340
26
  0
BLOCK_RECORD
  5
59
330
1
100
AcDbSymbolTableRecord
100
AcDbBlockTableRecord
  2
_D
340
0
  0
BLOCK_RECORD
  5
6D
330
1
100
AcDbSymbolTableRecord
100
AcDbBlockTableRecord
  2
_D_1
340
0
  0
BLOCK_RECORD
  5
82
330
1
100
AcDbSymbolTableRecord
100
AcDbBlockTableRecord
  2
_D_2
340
0
  0
BLOCK_RECORD
  5
94
330
1
100
AcDbSymbolTableRecord
100
AcDbBlockTableRecord
  2
SW_NOTE_0
340
0
102
{BLKREFS
331
99
102
}
  0
BLOCK_RECORD
  5
9A
330
1
100
AcDbSymbolTableRecord
100
AcDbBlockTableRecord
  2
SW_NOTE_1
340
0
102
{BLKREFS
331
AB
102
}
  0
BLOCK_RECORD
  5
AC
330
1
100
AcDbSymbolTableRecord
100
AcDbBlockTableRecord
  2
SW_NOTE_2
340
0
102
{BLKREFS
331
B3
102
}
  0
ENDTAB
  0
ENDSEC
  0
SECTION
  2
BLOCKS
  0
BLOCK
  5
20
330
1F
100
AcDbEntity
  8
0
100
AcDbBlockBegin
  2
*Model_Space
 70
     0
 10
0.0
 20
0.0
 30
0.0
  3
*Model_Space
  1

  0
ENDBLK
  5
21
330
1F
100
AcDbEntity
  8
0
100
AcDbBlockEnd
  0
BLOCK
  5
1C
330
1B
100
AcDbEntity
 67
     1
  8
0
100
AcDbBlockBegin
  2
*Paper_Space
 70
     0
 10
0.0
 20
0.0
 30
0.0
  3
*Paper_Space
  1

  0
ENDBLK
  5
1D
330
1B
100
AcDbEntity
 67
     1
  8
0
100
AcDbBlockEnd
  0
BLOCK
  5
24
330
23
100
AcDbEntity
  8
0
100
AcDbBlockBegin
  2
*Paper_Space0
 70
     0
 10
0.0
 20
0.0
 30
0.0
  3
*Paper_Space0
  1

  0
ENDBLK
  5
25
330
23
100
AcDbEntity
  8
0
100
AcDbBlockEnd
  0
BLOCK
  5
5A
330
59
100
AcDbEntity
  8
0
100
AcDbBlockBegin
  2
_D
 70
     0
 10
0.0
 20
0.0
 30
0.0
  3
_D
  1

  0
SOLID
  5
5C
330
59
100
AcDbEntity
  8
DIMS
 62
     1
100
AcDbTrace
 10
1.0198958075
 20
4.6894327182
 30
0.0
 11
1.3839094793
 21
4.6334306148
 31
0.0
 12
1.3839094793
 22
4.7454348216
 32
0.0
 13
1.3839094793
 23
4.7454348216
 33
0.0
  0
SOLID
  5
5D
330
59
100
AcDbEntity
  8
DIMS
 62
     1
100
AcDbTrace
 10
33.3948958075
 20
4.6894327182
 30
0.0
 11
33.0308821356
 21
4.7454348216
 31
0.0
 12
33.0308821356
 22
4.6334306148
 32
0.0
 13
33.0308821356
 23
4.6334306148
 33
0.0
  0
LINE
  5
5E
330
59
100
AcDbEntity
  8
DIMS
 62
     1
100
AcDbLine
 10
21.2171314434
 20
5.0894674161
 30
0.0
 11
21.601159227
 21
5.0894674161
 31
0.0
  0
LINE
  5
5F
330
59
100
AcDbEntity
  8
DIMS
 62
     1
100
AcDbLine
 10
20.5188675077
 20
4.46363411
 30
0.0
 11
20.4355341754
 21
4.46363411
 31
0.0
  0
LINE
  5
60
330
59
100
AcDbEntity
  8
DIMS
 62
     1
100
AcDbLine
 10
20.4355341754
 20
4.46363411
 30
0.0
 11
20.4355341754
 21
3.9046063412
 31
0.0
  0
LINE
  5
61
330
59
100
AcDbEntity
  8
DIMS
 62
     1
100
AcDbLine
 10
20.4355341754
 20
3.9046063412
 30
0.0
 11
20.5188675077
 21
3.9046063412
 31
0.0
  0
LINE
  5
62
330
59
100
AcDbEntity
  8
DIMS
 62
     1
100
AcDbLine
 10
22.2549786161
 20
4.46363411
 30
0.0
 11
22.3383119485
 21
4.46363411
 31
0.0
  0
LINE
  5
63
330
59
100
AcDbEntity
  8
DIMS
 62
     1
100
AcDbLine
 10
22.3383119485
 20
4.46363411
 30
0.0
 11
22.3383119485
 21
3.9046063412
 31
0.0
  0
LINE
  5
64
330
59
100
AcDbEntity
  8
DIMS
 62
     1
100
AcDbLine
 10
22.3383119485
 20
3.9046063412
 30
0.0
 11
22.2549786161
 21
3.9046063412
 31
0.0
  0
LINE
  5
65
330
59
100
AcDbEntity
  8
DIMS
 62
     1
100
AcDbLine
 10
1.0198958075
 20
4.6894327182
 30
0.0
 11
20.2896522484
 21
4.6894327182
 31
0.0
  0
LINE
  5
66
330
59
100
AcDbEntity
  8
DIMS
 62
     1
100
AcDbLine
 10
33.3948958075
 20
4.6894327182
 30
0.0
 11
22.4841938388
 21
4.6894327182
 31
0.0
  0
MTEXT
  5
67
330
59
100
AcDbEntity
  8
DIMS
 62
     1
100
AcDbMText
 10
20.6084508899
 20
5.2855153514
 30
0.0039370079
 40
0.375
 41
0.0
 71
     1
 72
     1
  1
32
  7
SLDTEXTSTYLE0
 73
     1
 44
1.0
  0
MTEXT
  5
68
330
59
100
AcDbEntity
  8
DIMS
 62
     1
100
AcDbMText
 10
21.270256448
 20
5.5409928268
 30
0.0039370079
 40
0.375
 41
0.0
 71
     1
 72
     1
  1
3
  7
SLDTEXTSTYLE0
 73
     1
 44
1.0
  0
MTEXT
  5
69
330
59
100
AcDbEntity
  8
DIMS
 62
     1
100
AcDbMText
 10
21.270256448
 20
5.0303678321
 30
0.0039370079
 40
0.375
 41
0.0
 71
     1
 72
     1
  1
8
  7
SLDTEXTSTYLE0
 73
     1
 44
1.0
  0
MTEXT
  5
6A
330
59
100
AcDbEntity
  8
DIMS
 62
     1
100
AcDbMText
 10
21.654284195
 20
5.2855153514
 30
0.0039370079
 40
0.375
 41
0.0
 71
     1
 72
     1
  1
"
  7
SLDTEXTSTYLE0
 73
     1
 44
1.0
  0
MTEXT
  5
6B
330
59
100
AcDbEntity
  8
DIMS
 62
     1
100
AcDbMText
 10
20.6230341731
 20
4.3880067528
 30
0.0039370079
 40
0.375
 41
0.0
 71
     1
 72
     1
  1
822.33
  7
SLDTEXTSTYLE0
 73
     1
 44
1.0
  0
ENDBLK
  5
5B
330
59
100
AcDbEntity
  8
0
100
AcDbBlockEnd
  0
BLOCK
  5
6E
330
6D
100
AcDbEntity
  8
0
100
AcDbBlockBegin
  2
_D_1
 70
     0
 10
0.0
 20
0.0
 30
0.0
  3
_D_1
  1

  0
SOLID
  5
70
330
6D
100
AcDbEntity
  8
DIMS
 62
     1
100
AcDbTrace
 10
25.3739060025
 20
21.694992362
 30
0.0
 11
25.3179038992
 21
21.3309786901
 31
0.0
 12
25.4299081059
 22
21.3309786901
 32
0.0
 13
25.4299081059
 23
21.3309786901
 33
0.0
  0
SOLID
  5
71
330
6D
100
AcDbEntity
  8
DIMS
 62
     1
100
AcDbTrace
 10
25.3739060025
 20
0.319992362
 30
0.0
 11
25.4299081059
 21
0.6840060339
 31
0.0
 12
25.3179038992
 22
0.6840060339
 32
0.0
 13
25.3179038992
 23
0.6840060339
 33
0.0
  0
LINE
  5
72
330
6D
100
AcDbEntity
  8
DIMS
 62
     1
100
AcDbLine
 10
25.2041144023
 20
10.0037177183
 30
0.0
 11
25.588142186
 21
10.0037177183
 31
0.0
  0
LINE
  5
73
330
6D
100
AcDbEntity
  8
DIMS
 62
     1
100
AcDbLine
 10
24.5058504666
 20
9.3778844121
 30
0.0
 11
24.4225171343
 21
9.3778844121
 31
0.0
  0
LINE
  5
74
330
6D
100
AcDbEntity
  8
DIMS
 62
     1
100
AcDbLine
 10
24.4225171343
 20
9.3778844121
 30
0.0
 11
24.4225171343
 21
8.8188566434
 31
0.0
  0
LINE
  5
75
330
6D
100
AcDbEntity
  8
DIMS
 62
     1
100
AcDbLine
 10
24.4225171343
 20
8.8188566434
 30
0.0
 11
24.5058504666
 21
8.8188566434
 31
0.0
  0
LINE
  5
76
330
6D
100
AcDbEntity
  8
DIMS
 62
     1
100
AcDbLine
 10
26.2419615751
 20
9.3778844121
 30
0.0
 11
26.3252949074
 21
9.3778844121
 31
0.0
  0
LINE
  5
77
330
6D
100
AcDbEntity
  8
DIMS
 62
     1
100
AcDbLine
 10
26.3252949074
 20
9.3778844121
 30
0.0
 11
26.3252949074
 21
8.8188566434
 31
0.0
  0
LINE
  5
78
330
6D
100
AcDbEntity
  8
DIMS
 62
     1
100
AcDbLine
 10
26.3252949074
 20
8.8188566434
 30
0.0
 11
26.2419615751
 21
8.8188566434
 31
0.0
  0
LINE
  5
79
330
6D
100
AcDbEntity
  8
DIMS
 62
     1
100
AcDbLine
 10
25.3739060025
 20
21.694992362
 30
0.0
 11
25.3739060025
 21
10.4718427113
 31
0.0
  0
LINE
  5
7A
330
6D
100
AcDbEntity
  8
DIMS
 62
     1
100
AcDbLine
 10
25.3739060025
 20
0.319992362
 30
0.0
 11
25.3739060025
 21
8.7355233294
 31
0.0
  0
MTEXT
  5
7B
330
6D
100
AcDbEntity
  8
DIMS
 62
     1
100
AcDbMText
 10
24.5954338488
 20
10.1997656535
 30
0.0039370079
 40
0.375
 41
0.0
 71
     1
 72
     1
  1
21
  7
SLDTEXTSTYLE0
 73
     1
 44
1.0
  0
MTEXT
  5
7C
330
6D
100
AcDbEntity
  8
DIMS
 62
     1
100
AcDbMText
 10
25.2572394069
 20
10.4552431289
 30
0.0039370079
 40
0.375
 41
0.0
 71
     1
 72
     1
  1
3
  7
SLDTEXTSTYLE0
 73
     1
 44
1.0
  0
MTEXT
  5
7D
330
6D
100
AcDbEntity
  8
DIMS
 62
     1
100
AcDbMText
 10
25.2572394069
 20
9.9446181343
 30
0.0039370079
 40
0.375
 41
0.0
 71
     1
 72
     1
  1
8
  7
SLDTEXTSTYLE0
 73
     1
 44
1.0
  0
MTEXT
  5
7E
330
6D
100
AcDbEntity
  8
DIMS
 62
     1
100
AcDbMText
 10
25.641267154
 20
10.1997656535
 30
0.0039370079
 40
0.375
 41
0.0
 71
     1
 72
     1
  1
"
  7
SLDTEXTSTYLE0
 73
     1
 44
1.0
  0
MTEXT
  5
7F
330
6D
100
AcDbEntity
  8
DIMS
 62
     1
100
AcDbMText
 10
24.610017132
 20
9.302257055
 30
0.0039370079
 40
0.375
 41
0.0
 71
     1
 72
     1
  1
542.93
  7
SLDTEXTSTYLE0
 73
     1
 44
1.0
  0
ENDBLK
  5
6F
330
6D
100
AcDbEntity
  8
0
100
AcDbBlockEnd
  0
BLOCK
  5
83
330
82
100
AcDbEntity
  8
0
100
AcDbBlockBegin
  2
_D_2
 70
     0
 10
0.0
 20
0.0
 30
0.0
  3
_D_2
  1

  0
SOLID
  5
85
330
82
100
AcDbEntity
  8
DIMS
 62
     1
100
AcDbTrace
 10
1.5282360842
 20
0.6945542281
 30
0.0
 11
1.8109058174
 21
0.930647453
 31
0.0
 12
1.7268699471
 22
1.0046941601
 32
0.0
 13
1.7268699471
 23
1.0046941601
 33
0.0
  0
LINE
  5
86
330
82
100
AcDbEntity
  8
DIMS
 62
     1
100
AcDbLine
 10
4.5463127347
 20
3.2981085843
 30
0.0
 11
4.9303405183
 21
3.2981085843
 31
0.0
  0
LINE
  5
87
330
82
100
AcDbEntity
  8
DIMS
 62
     1
100
AcDbLine
 10
3.9452711759
 20
2.6722752782
 30
0.0
 11
3.8619378435
 21
2.6722752782
 31
0.0
  0
LINE
  5
88
330
82
100
AcDbEntity
  8
DIMS
 62
     1
100
AcDbLine
 10
3.8619378435
 20
2.6722752782
 30
0.0
 11
3.8619378435
 21
2.1132475095
 31
0.0
  0
LINE
  5
89
330
82
100
AcDbEntity
  8
DIMS
 62
     1
100
AcDbLine
 10
3.8619378435
 20
2.1132475095
 30
0.0
 11
3.9452711759
 21
2.1132475095
 31
0.0
  0
LINE
  5
8A
330
82
100
AcDbEntity
  8
DIMS
 62
     1
100
AcDbLine
 10
5.4036043999
 20
2.6722752782
 30
0.0
 11
5.4869377322
 21
2.6722752782
 31
0.0
  0
LINE
  5
8B
330
82
100
AcDbEntity
  8
DIMS
 62
     1
100
AcDbLine
 10
5.4869377322
 20
2.6722752782
 30
0.0
 11
5.4869377322
 21
2.1132475095
 31
0.0
  0
LINE
  5
8C
330
82
100
AcDbEntity
  8
DIMS
 62
     1
100
AcDbLine
 10
5.4869377322
 20
2.1132475095
 30
0.0
 11
5.4036043999
 21
2.1132475095
 31
0.0
  0
LINE
  5
8D
330
82
100
AcDbEntity
  8
DIMS
 62
     1
100
AcDbLine
 10
1.5282360842
 20
0.6945542281
 30
0.0
 11
3.5494378443
 21
2.9884232677
 31
0.0
  0
LINE
  5
8E
330
82
100
AcDbEntity
  8
DIMS
 62
     1
100
AcDbLine
 10
3.5494378443
 20
2.9884232677
 30
0.0
 11
3.7994378443
 21
2.9884232677
 31
0.0
  0
MTEXT
  5
8F
330
82
100
AcDbEntity
  8
DIMS
 62
     1
100
AcDbMText
 10
3.8542988305
 20
3.4941565196
 30
0.0039370079
 40
0.375
 41
0.0
 71
     1
 72
     1
  1
R1
  7
SLDTEXTSTYLE0
 73
     1
 44
1.0
  0
MTEXT
  5
90
330
82
100
AcDbEntity
  8
DIMS
 62
     1
100
AcDbMText
 10
4.5994377393
 20
3.749633995
 30
0.0039370079
 40
0.375
 41
0.0
 71
     1
 72
     1
  1
1
  7
SLDTEXTSTYLE0
 73
     1
 44
1.0
  0
MTEXT
  5
91
330
82
100
AcDbEntity
  8
DIMS
 62
     1
100
AcDbMText
 10
4.5994377393
 20
3.2390090003
 30
0.0039370079
 40
0.375
 41
0.0
 71
     1
 72
     1
  1
2
  7
SLDTEXTSTYLE0
 73
     1
 44
1.0
  0
MTEXT
  5
92
330
82
100
AcDbEntity
  8
DIMS
 62
     1
100
AcDbMText
 10
4.9834655596
 20
3.4941565196
 30
0.0039370079
 40
0.375
 41
0.0
 71
     1
 72
     1
  1
"
  7
SLDTEXTSTYLE0
 73
     1
 44
1.0
  0
MTEXT
  5
93
330
82
100
AcDbEntity
  8
DIMS
 62
     1
100
AcDbMText
 10
4.0494378413
 20
2.596647921
 30
0.0039370079
 40
0.375
 41
0.0
 71
     1
 72
     1
  1
38.10
  7
SLDTEXTSTYLE0
 73
     1
 44
1.0
  0
ENDBLK
  5
84
330
82
100
AcDbEntity
  8
0
100
AcDbBlockEnd
  0
BLOCK
  5
95
330
94
100
AcDbEntity
  8
0
100
AcDbBlockBegin
  2
SW_NOTE_0
 70
     0
 10
0.0
 20
0.0
 30
0.0
  3
SW_NOTE_0
  1

  0
MTEXT
  5
97
330
94
100
AcDbEntity
  8
0
  6
Continuous
 62
     0
370
     0
100
AcDbMText
 10
6.0042317708
 20
0.9399452269
 30
0.0
 40
0.7291666667
 41
0.0
 71
     2
 72
     1
  1
TEMPLATE #: 1000001189
  7
SLDTEXTSTYLE0
 73
     1
 44
1.0
  0
MTEXT
  5
98
330
94
100
AcDbEntity
  8
0
  6
Continuous
 62
     0
370
     0
100
AcDbMText
 10
5.9636678578
 20
-0.0165995549
 30
0.0
 40
0.375
 41
0.0
 71
     2
 72
     1
  1
TOP MOUNT TEMPLATE 33" X 22"
  7
SLDTEXTSTYLE0
 73
     1
 44
1.0
  0
ENDBLK
  5
96
330
94
100
AcDbEntity
  8
0
100
AcDbBlockEnd
  0
BLOCK
  5
9B
330
9A
100
AcDbEntity
  8
0
100
AcDbBlockBegin
  2
SW_NOTE_1
 70
     0
 10
0.0
 20
0.0
 30
0.0
  3
SW_NOTE_1
  1

  0
MTEXT
  5
9D
330
9A
100
AcDbEntity
  8
NOTES
 62
     0
100
AcDbMText
 10
0.0
 20
0.2417002012
 30
0.0
 40
0.1875
 41
0.0
 71
     1
 72
     1
  1
NOTES:
  7
SLDTEXTSTYLE0
 73
     1
 44
1.0
  0
MTEXT
  5
9E
330
9A
100
AcDbEntity
  8
NOTES
 62
     0
100
AcDbMText
 10
0.3937007786
 20
-0.2582997928
 30
0.0
 40
0.1875
 41
0.0
 71
     1
 72
     1
  1
THOROUGHLY READ ALL  INSTALLATION INSTRUCTIONS
  7
SLDTEXTSTYLE0
 73
     1
 44
1.0
  0
MTEXT
  5
9F
330
9A
100
AcDbEntity
  8
NOTES
 62
     0
100
AcDbMText
 10
0.0
 20
-0.2582997928
 30
0.0
 40
0.1875
 41
0.0
 71
     1
 72
     1
  1
1.
  7
SLDTEXTSTYLE0
 73
     1
 44
1.0
  0
MTEXT
  5
A0
330
9A
100
AcDbEntity
  8
NOTES
 62
     0
100
AcDbMText
 10
0.0
 20
-0.5082997897
 30
0.0
 40
0.1875
 41
0.0
 71
     1
 72
     1
  1
BEFORE CUTTING COUNTERTOP.
  7
SLDTEXTSTYLE0
 73
     1
 44
1.0
  0
MTEXT
  5
A1
330
9A
100
AcDbEntity
  8
NOTES
 62
     0
100
AcDbMText
 10
0.0
 20
-1.0082997837
 30
0.0
 40
0.1875
 41
0.0
 71
     1
 72
     1
  1
2.  DIMENSIONS ARE IN INCHES [MM].
  7
SLDTEXTSTYLE0
 73
     1
 44
1.0
  0
MTEXT
  5
A3
330
9A
100
AcDbEntity
  8
NOTES
 62
     0
100
AcDbMText
 10
0.0
 20
-1.7582997746
 30
0.0
 40
0.1875
 41
0.0
 71
     1
 72
     1
  1
PLEASE CHECK TEMPLATE AGAINST PHYSICAL SINK FOR 
  7
SLDTEXTSTYLE1
 73
     1
 44
1.0
  0
MTEXT
  5
A4
330
9A
100
AcDbEntity
  8
NOTES
 62
     0
100
AcDbMText
 10
0.0
 20
-2.0082997716
 30
0.0
 40
0.1875
 41
0.0
 71
     1
 72
     1
  1
MOST ACCURATE CUT.
  7
SLDTEXTSTYLE1
 73
     1
 44
1.0
  0
MTEXT
  5
A5
330
9A
100
AcDbEntity
  8
NOTES
 62
     0
100
AcDbMText
 10
0.0
 20
-3.0082997595
 30
0.0
 40
0.1875
 41
0.0
 71
     1
 72
     1
  1
NOTAS:
  7
SLDTEXTSTYLE0
 73
     1
 44
1.0
  0
MTEXT
  5
A6
330
9A
100
AcDbEntity
  8
NOTES
 62
     0
100
AcDbMText
 10
0.0
 20
-3.5082997535
 30
0.0
 40
0.1875
 41
0.0
 71
     1
 72
     1
  1
1.  LEA ATENTAMENTE LAS INSTRUCCIONES DE 
  7
SLDTEXTSTYLE0
 73
     1
 44
1.0
  0
MTEXT
  5
A7
330
9A
100
AcDbEntity
  8
NOTES
 62
     0
100
AcDbMText
 10
0.0
 20
-3.7582997505
 30
0.0
 40
0.1875
 41
0.0
 71
     1
 72
     1
  1
INSTALACIÓN ANTES DE CORTAR LA ENCIMERA.
  7
SLDTEXTSTYLE0
 73
     1
 44
1.0
  0
MTEXT
  5
A8
330
9A
100
AcDbEntity
  8
NOTES
 62
     0
100
AcDbMText
 10
0.0
 20
-4.2582997444
 30
0.0
 40
0.1875
 41
0.0
 71
     1
 72
     1
  1
2.  DIMENSIONES EN PULGADAS [MM].
  7
SLDTEXTSTYLE0
 73
     1
 44
1.0
  0
MTEXT
  5
A9
330
9A
100
AcDbEntity
  8
NOTES
 62
     0
100
AcDbMText
 10
0.0
 20
-5.0082997353
 30
0.0
 40
0.1875
 41
0.0
 71
     1
 72
     1
  1
POR FAVOR COMPRUEBE PLANTILLA CONTRA FREGADERO 
  7
SLDTEXTSTYLE1
 73
     1
 44
1.0
  0
MTEXT
  5
AA
330
9A
100
AcDbEntity
  8
NOTES
 62
     0
100
AcDbMText
 10
0.0
 20
-5.2582997323
 30
0.0
 40
0.1875
 41
0.0
 71
     1
 72
     1
  1
FÍSICO PARA CORTE MÁS EXACTO.
  7
SLDTEXTSTYLE1
 73
     1
 44
1.0
  0
ENDBLK
  5
9C
330
9A
100
AcDbEntity
  8
0
100
AcDbBlockEnd
  0
BLOCK
  5
AD
330
AC
100
AcDbEntity
  8
0
100
AcDbBlockBegin
  2
SW_NOTE_2
 70
     0
 10
0.0
 20
0.0
 30
0.0
  3
SW_NOTE_2
  1

  0
MTEXT
  5
AF
330
AC
100
AcDbEntity
  8
NOTES
 62
     0
100
AcDbMText
 10
-0.8924164418
 20
0.6875160745
 30
0.0
 40
0.2083333333
 41
0.0
 71
     2
 72
     1
  1
TEMPLATE
  7
SLDTEXTSTYLE0
 73
     1
 44
1.0
  0
MTEXT
  5
B0
330
AC
100
AcDbEntity
  8
NOTES
 62
     0
100
AcDbMText
 10
-0.8892817715
 20
0.4097383001
 30
0.0
 40
0.2083333333
 41
0.0
 71
     2
 72
     1
  1
CENTERLINE
  7
SLDTEXTSTYLE0
 73
     1
 44
1.0
  0
MTEXT
  5
B1
330
AC
100
AcDbEntity
  8
NOTES
 62
     0
100
AcDbMText
 10
-0.8891612335
 20
-0.1458172488
 30
0.0
 40
0.2083333333
 41
0.0
 71
     2
 72
     1
  1
PLANTILLA
  7
SLDTEXTSTYLE0
 73
     1
 44
1.0
  0
MTEXT
  5
B2
330
AC
100
AcDbEntity
  8
NOTES
 62
     0
100
AcDbMText
 10
-0.892175299
 20
-0.4235950232
 30
0.0
 40
0.2083333333
 41
0.0
 71
     2
 72
     1
  1
CENTRAL
  7
SLDTEXTSTYLE0
 73
     1
 44
1.0
  0
ENDBLK
  5
AE
330
AC
100
AcDbEntity
  8
0
100
AcDbBlockEnd
  0
ENDSEC
  0
SECTION
  2
ENTITIES
  0
LINE
  5
4A
330
1F
100
AcDbEntity
  8
OBJECTS
  6
CENTERX2
 62
     5
100
AcDbLine
 10
1.0198958075
 20
11.007492362
 30
0.0
 11
3.9351733901
 21
11.007492362
 31
0.0
  0
LINE
  5
4B
330
1F
100
AcDbEntity
  8
OBJECTS
 62
     5
100
AcDbLine
 10
2.5198958075
 20
21.694992362
 30
0.0
 11
31.8948958075
 21
21.694992362
 31
0.0
  0
LINE
  5
4C
330
1F
100
AcDbEntity
  8
OBJECTS
 62
     5
100
AcDbLine
 10
1.0198958075
 20
20.194992362
 30
0.0
 11
1.0198958075
 21
1.819992362
 31
0.0
  0
LINE
  5
4D
330
1F
100
AcDbEntity
  8
OBJECTS
 62
     5
100
AcDbLine
 10
2.5198958075
 20
0.319992362
 30
0.0
 11
31.8948958075
 21
0.319992362
 31
0.0
  0
LINE
  5
4E
330
1F
100
AcDbEntity
  8
OBJECTS
 62
     5
100
AcDbLine
 10
33.3948958075
 20
20.194992362
 30
0.0
 11
33.3948958075
 21
1.819992362
 31
0.0
  0
LINE
  5
4F
330
1F
100
AcDbEntity
  8
OBJECTS
  6
CENTERX2
 62
     5
100
AcDbLine
 10
33.3948958075
 20
11.007492362
 30
0.0
 11
30.4796182248
 21
11.007492362
 31
0.0
  0
LINE
  5
50
330
1F
100
AcDbEntity
  8
OBJECTS
  6
CENTERX2
 62
     5
100
AcDbLine
 10
17.2073958075
 20
21.694992362
 30
0.0
 11
17.2073958075
 21
18.5384523536
 31
0.0
  0
LINE
  5
51
330
1F
100
AcDbEntity
  8
OBJECTS
  6
CENTERX2
 62
     5
100
AcDbLine
 10
17.2073958075
 20
0.319992362
 30
0.0
 11
17.2073958075
 21
3.4765323704
 31
0.0
  0
ARC
  5
52
330
1F
100
AcDbEntity
  8
OBJECTS
 62
     5
100
AcDbCircle
 10
2.5198958075
 20
1.819992362
 30
0.0
 40
1.500000000000005
100
AcDbArc
 50
180.0
 51
270.0
  0
ARC
  5
53
330
1F
100
AcDbEntity
  8
OBJECTS
 62
     5
100
AcDbCircle
 10
31.8948958075
 20
1.819992362
 30
0.0
 40
1.500000000000001
100
AcDbArc
 50
270.0
 51
0.0
  0
ARC
  5
54
330
1F
100
AcDbEntity
  8
OBJECTS
 62
     5
100
AcDbCircle
 10
31.8948958075
 20
20.194992362
 30
0.0
 40
1.5
100
AcDbArc
 50
0.0
 51
90.0
  0
ARC
  5
55
330
1F
100
AcDbEntity
  8
OBJECTS
 62
     5
100
AcDbCircle
 10
2.5198958075
 20
20.194992362
 30
0.0
 40
1.500000000000011
100
AcDbArc
 50
90.0
 51
180.0
  0
DIMENSION
  5
56
330
1F
100
AcDbEntity
  8
DIMS
 62
     1
100
AcDbDimension
  2
_D
 10
33.3948958075
 20
4.6894327182
 30
0.0
 11
21.3869230436
 21
4.6894327182
 31
0.0
 70
   160
  1
<>
 71
     2
 42
-1.0
  3
SLDDIMSTYLE0
100
AcDbAlignedDimension
 13
1.0198958075
 23
1.819992362
 33
0.0
 14
33.3948958075
 24
1.819992362
 34
0.0
 50
0.0
100
AcDbRotatedDimension
  0
DIMENSION
  5
6C
330
1F
100
AcDbEntity
  8
DIMS
 62
     1
100
AcDbDimension
  2
_D_1
 10
25.3739060025
 20
0.319992362
 30
0.0
 11
25.3739060025
 21
9.6036830203
 31
0.0
 70
   160
  1
<>
 71
     2
 42
-1.0
  3
SLDDIMSTYLE0
100
AcDbAlignedDimension
 13
31.8948958075
 23
21.694992362
 33
0.0
 14
31.8948958075
 24
0.319992362
 34
0.0
 50
90.0
100
AcDbRotatedDimension
  0
DIMENSION
  5
80
330
1F
100
AcDbEntity
  8
DIMS
 62
     1
100
AcDbDimension
  2
_D_2
 10
2.5198958075
 20
1.819992362
 30
0.0
 11
4.6744377695
 21
2.8980738864
 31
0.0
 70
   164
  1
<>
 71
     1
 42
-1.0
  3
SLDDIMSTYLE1
100
AcDbRadialDimension
 15
1.5282360842
 25
0.6945542281
 35
0.0
 40
0.0
  0
INSERT
  5
99
330
1F
100
AcDbEntity
  8
0
  6
Continuous
 62
     7
370
     0
100
AcDbBlockReference
  2
SW_NOTE_0
 10
11.3835924003
 20
10.5051262327
 30
0.0
  0
INSERT
  5
AB
330
1F
100
AcDbEntity
  8
NOTES
 62
     7
100
AcDbBlockReference
  2
SW_NOTE_1
 10
4.6744377695
 20
19.8178943976
 30
0.0
  0
INSERT
  5
B3
102
{ACAD_REACTORS
330
B5
330
B6
102
}
330
1F
100
AcDbEntity
  8
NOTES
100
AcDbBlockReference
  2
SW_NOTE_2
 10
24.3769566455
 20
15.5496718441
 30
0.0
  0
LEADER
  5
B5
330
1F
100
AcDbEntity
  8
NOTES
100
AcDbLeader
  3
SLDDIMSTYLE2
 73
     2
 76
     3
 10
31.3937809984
 20
11.007492362
 30
0.0
 10
24.6269566455
 20
15.5496718441
 30
0.0
 10
24.3769566455
 20
15.5496718441
 30
0.0
340
B3
  0
LEADER
  5
B6
330
1F
100
AcDbEntity
  8
NOTES
100
AcDbLeader
  3
SLDDIMSTYLE2
 73
     2
 76
     3
 10
17.2073958075
 20
19.4090835665
 30
0.0
 10
22.3282226975
 20
15.5496718441
 30
0.0
 10
22.5782226975
 20
15.5496718441
 30
0.0
340
B3
212
-1.798733947960773
222
0.0
232
0.0
  0
ENDSEC
  0
SECTION
  2
OBJECTS
  0
DICTIONARY
  5
C
330
0
100
AcDbDictionary
281
     1
  3
ACAD_GROUP
350
D
  3
ACAD_LAYOUT
350
1A
  3
ACAD_MLINESTYLE
350
17
  3
ACAD_PLOTSETTINGS
350
19
  3
ACAD_PLOTSTYLENAME
350
E
  0
DICTIONARY
  5
D
102
{ACAD_REACTORS
330
C
102
}
330
C
100
AcDbDictionary
281
     1
  0
DICTIONARY
  5
1A
102
{ACAD_REACTORS
330
C
102
}
330
C
100
AcDbDictionary
281
     1
  3
Layout1
350
1E
  3
Layout2
350
26
  3
Model
350
22
  0
DICTIONARY
  5
17
102
{ACAD_REACTORS
330
C
102
}
330
C
100
AcDbDictionary
281
     1
  3
Standard
350
18
  0
DICTIONARY
  5
19
102
{ACAD_REACTORS
330
C
102
}
330
C
100
AcDbDictionary
281
     1
  0
ACDBDICTIONARYWDFLT
  5
E
102
{ACAD_REACTORS
330
C
102
}
330
C
100
AcDbDictionary
281
     1
  3
Normal
350
F
100
AcDbDictionaryWithDefault
340
F
  0
LAYOUT
  5
1E
102
{ACAD_REACTORS
330
1A
102
}
330
1A
100
AcDbPlotSettings
  1

  2
none_device
  4

  6

 40
0.0
 41
0.0
 42
0.0
 43
0.0
 44
0.0
 45
0.0
 46
0.0
 47
0.0
 48
0.0
 49
0.0
140
0.0
141
0.0
142
1.0
143
1.0
 70
   688
 72
     0
 73
     0
 74
     5
  7

 75
    16
147
1.0
148
0.0
149
0.0
100
AcDbLayout
  1
Layout1
 70
     1
 71
     1
 10
0.0
 20
0.0
 11
12.0
 21
9.0
 12
0.0
 22
0.0
 32
0.0
 14
1.0000000000E+20
 24
1.0000000000E+20
 34
1.0000000000E+20
 15
-1.0000000000E+20
 25
-1.0000000000E+20
 35
-1.0000000000E+20
146
0.0
 13
0.0
 23
0.0
 33
0.0
 16
1.0
 26
0.0
 36
0.0
 17
0.0
 27
1.0
 37
0.0
 76
     0
330
1B
  0
LAYOUT
  5
26
102
{ACAD_REACTORS
330
1A
102
}
330
1A
100
AcDbPlotSettings
  1

  2
none_device
  4

  6

 40
0.0
 41
0.0
 42
0.0
 43
0.0
 44
0.0
 45
0.0
 46
0.0
 47
0.0
 48
0.0
 49
0.0
140
0.0
141
0.0
142
1.0
143
1.0
 70
   688
 72
     0
 73
     0
 74
     5
  7

 75
    16
147
1.0
148
0.0
149
0.0
100
AcDbLayout
  1
Layout2
 70
     1
 71
     2
 10
0.0
 20
0.0
 11
0.0
 21
0.0
 12
0.0
 22
0.0
 32
0.0
 14
0.0
 24
0.0
 34
0.0
 15
0.0
 25
0.0
 35
0.0
146
0.0
 13
0.0
 23
0.0
 33
0.0
 16
1.0
 26
0.0
 36
0.0
 17
0.0
 27
1.0
 37
0.0
 76
     0
330
23
  0
LAYOUT
  5
22
102
{ACAD_REACTORS
330
1A
102
}
330
1A
100
AcDbPlotSettings
  1

  2
none_device
  4

  6

 40
0.0
 41
0.0
 42
0.0
 43
0.0
 44
0.0
 45
0.0
 46
0.0
 47
0.0
 48
0.0
 49
0.0
140
0.0
141
0.0
142
1.0
143
1.0
 70
  1712
 72
     0
 73
     0
 74
     0
  7

 75
     0
147
1.0
148
0.0
149
0.0
100
AcDbLayout
  1
Model
 70
     1
 71
     0
 10
0.0
 20
0.0
 11
34.0
 21
22.0
 12
0.0
 22
0.0
 32
0.0
 14
0.0
 24
0.0
 34
0.0
 15
34.0
 25
22.0
 35
0.0
146
0.0
 13
0.0
 23
0.0
 33
0.0
 16
1.0
 26
0.0
 36
0.0
 17
0.0
 27
1.0
 37
0.0
 76
     0
330
1F
331
29
  0
MLINESTYLE
  5
18
102
{ACAD_REACTORS
330
17
102
}
330
17
100
AcDbMlineStyle
  2
Standard
 70
     0
  3

 62
   256
 51
90.0
 52
90.0
 71
     2
 49
0.5
 62
   256
  6
BYLAYER
 49
-0.5
 62
   256
  6
BYLAYER
  0
ACDBPLACEHOLDER
  5
F
102
{ACAD_REACTORS
330
E
102
}
330
E
  0
ENDSEC
  0
EOF
